Best Blu-ray Deals

Best Blu-ray Deals, See All the Deals »
Top deals | Price drops  
 All countries United States United Kingdom Canada Germany France Spain Italy Japan
The Walking Dead: The Complete Fourth Season (Blu-ray)
$19.99
13 hrs ago
Edge of Tomorrow 3D (Blu-ray)
$19.99
13 hrs ago
Alien Anthology and Prometheus (Blu-ray)
$19.98
21 hrs ago
Godzilla 3D (Blu-ray)
$19.99
8 hrs ago
Edge of Tomorrow (Blu-ray)
$14.99
17 hrs ago
Halloween: The Complete Collection (Blu-ray)
$79.99
21 hrs ago
Teenage Mutant Ninja Turtles (Blu-ray)
$14.99
12 hrs ago
The Wizard of Oz 3D (Blu-ray)
$46.70
21 min ago
Jersey Boys (Blu-ray)
$14.99
17 hrs ago
Neighbors (Blu-ray)
$9.99
17 hrs ago
Arrow: The Complete Second Season (Blu-ray)
$19.99
 
Coming to America (Blu-ray)
$4.99
8 hrs ago
Tammy (Blu-ray)
$14.99
18 hrs ago
COLLECT WATCH TRACK RATE REVIEW APP
Manage your own movie collection and always keep it with you with our Apps. Price track movies and get price drop notifications instantly. Become a member to take full advantage of all site features.
GET STARTED

Go Back   Blu-ray Forum > Movies > Blu-ray Movies - International > Asia

Reply
 
Thread Tools Display Modes
Old 02-27-2014, 07:10 AM   #1
McCrutchy McCrutchy is offline
Contributor
 
McCrutchy's Avatar
 
Dec 2008
East Coast, USA
2
1052
98
5
11
Japan The Hunger Games: Catching Fire (Francis Lawrence)



Kadokawa will release Francis Lawrence's The Hunger Games: Catching Fire (2013), on Blu-ray in Japan on April 18th.

There will be two editions. One, the standard edition, will have two BD-50 discs, one for the film in scope ratio, and the other for extra features.

The other version, called a Premium Edition, will contain three BD-50 discs and two DVDs. The first BD will have the film in scope ratio, the second will have the film in its IMAX version, and the third will have extra features. The DVDs are a copy of the film, and a bonus DVD-5 disc of Japanese language extras.

According to Kadokawa's web site listing, the extras are as follows:

Quote:
Originally Posted by KADOKAWA
● Disc1 & 2: [i.e. the Blu-ray and DVD of the film]
• The audio commentary by director Francis Lawrence and produced by Nina Jacobson
Original version edit notice ( notice the original version / Coldplay version notice )
Japan version notice
( Nana Mizuki , Hiroshi Kamiya , Yuichi Nakamura , Koichi mountain temple , Maeno Tomoaki ) Special video message Japanese dubbing voice actor in theaters at the time
2014 Roadshow " divergent " preceding video
● Disc4:
I to survive : " Hunger Games 2" production secret story ( about 144 minutes )
, Unpublished scene ( about 5 minutes)
Vision : One ( about 12 minutes) faithful reproduction of the original
Ally : cast from previous work ( about 14 minutes)
- Friend or Foe : new cast ( about 18 minutes)
- State of the 12th District : black market hob ( about 2 minutes)
● Disc5: [this is the DVD-5 disc]
( Nana Mizuki , Hiroshi Kamiya , Yuichi Nakamura , Tomoaki Maeno ) Japanese dubbing voice actor preceding screenings talk show video ( about 20 minutes)
Japanese voice actor , dubbing theater publishing ( Nana Mizuki , Hiroshi Kamiya , Yuichi Nakamura , Koichi mountain temple , Maeno Tomoaki ) Special Interview ( about 30 minutes)
The third BD in the set (Disc 4) corresponds to all of the extras from the JB HiFi exclusive Australian version.

What is unclear is whether the BD with the IMAX version has shifting aspect ratios, or if it simply presents the entire film at 1.78:1. I would assume the former, but I suppose you never know. The listing does not appear to mention the number of minutes of footage in IMAX.
"You might very well think that; I couldn't possibly comment."
  Reply With Quote
Old 02-28-2014, 06:37 AM   #2
IndyMLVC IndyMLVC is offline
Blu-ray Ninja
 
IndyMLVC's Avatar
 
Oct 2010
New York City, NY
2
546
67
15
Default

Any idea what that 5th disc is?
  Reply With Quote
Old 02-28-2014, 07:34 AM   #3
McCrutchy McCrutchy is offline
Contributor
 
McCrutchy's Avatar
 
Dec 2008
East Coast, USA
2
1052
98
5
11
Default

Quote:
Originally Posted by IndyMLVC View Post
Any idea what that 5th disc is?
As noted, the fifth disc is the DVD of Japanese language extras. From the translation, it contains a 20 minute video of the Japanese voice actors on a talk show, and 30 minutes of interviews with the Japanese voice actors.

So to be clear:

Disc One: BD-50 with the feature film in scope ratio, Japanese DUB, audio commentary, trailers, sneak peek of Divergent

Disc Two: DVD-9 with the feature film in scope ratio, Japanese DUB, audio commentary, trailers, sneak peek of Divergent

Disc Three: BD-50 with the IMAX version of the feature [Here the presentation and extras are not specified]

Disc Four: BD-50 with all of the JB HiFi exclusive edition extras (US extras + Target exclusive extras + Australian exclusive extra)

Disc Five: DVD-5 with the two Japanese language extras
"You might very well think that; I couldn't possibly comment."
  Reply With Quote
Old 02-28-2014, 06:11 PM   #4
IndyMLVC IndyMLVC is offline
Blu-ray Ninja
 
IndyMLVC's Avatar
 
Oct 2010
New York City, NY
2
546
67
15
Default

Quote:
Originally Posted by McCrutchy View Post
As noted, the fifth disc is the DVD of Japanese language extras. From the translation, it contains a 20 minute video of the Japanese voice actors on a talk show, and 30 minutes of interviews with the Japanese voice actors.

So to be clear:

Disc One: BD-50 with the feature film in scope ratio, Japanese DUB, audio commentary, trailers, sneak peek of Divergent

Disc Two: DVD-9 with the feature film in scope ratio, Japanese DUB, audio commentary, trailers, sneak peek of Divergent

Disc Three: BD-50 with the IMAX version of the feature [Here the presentation and extras are not specified]

Disc Four: BD-50 with all of the JB HiFi exclusive edition extras (US extras + Target exclusive extras + Australian exclusive extra)

Disc Five: DVD-5 with the two Japanese language extras
What is the "Australian exclusive extra?"
  Reply With Quote
Old 03-02-2014, 06:53 AM   #5
McCrutchy McCrutchy is offline
Contributor
 
McCrutchy's Avatar
 
Dec 2008
East Coast, USA
2
1052
98
5
11
Default

Quote:
Originally Posted by IndyMLVC View Post
What is the "Australian exclusive extra?"
"Inside District 12: The Hob A look at the citizens of District 12" running approx. 2 minutes

I am now seeing that it is apparently on the US/UK editions as an easter egg, however.
"You might very well think that; I couldn't possibly comment."
  Reply With Quote
Old 03-20-2014, 01:40 AM   #6
faust1103 faust1103 is offline
Member
 
Dec 2007
1
Default

Will this release have Englush subtitles for the film?

Last edited by faust1103; 03-21-2014 at 02:45 AM.
  Reply With Quote
Old 04-15-2014, 12:19 PM   #7
McCrutchy McCrutchy is offline
Contributor
 
McCrutchy's Avatar
 
Dec 2008
East Coast, USA
2
1052
98
5
11
Default

Quote:
Originally Posted by faust1103 View Post
Will this release have Englush subtitles for the film?
The Amazon listing now says there are English subtitles for the film, but this is not confirmed yet on the Kadokawa web site, even though the first film apparently had English subtitles also.

I will confirm when I receive my set, which should hopefully be by Monday/Tuesday.
"You might very well think that; I couldn't possibly comment."
  Reply With Quote
Old 04-19-2014, 06:08 AM   #8
McCrutchy McCrutchy is offline
Contributor
 
McCrutchy's Avatar
 
Dec 2008
East Coast, USA
2
1052
98
5
11
Default

Confirmation:

The Blu-ray Discs in this set are region-free.

The actual specs turned out slightly different from what was proposed.

All presentations of the film include original English and Japanese dubbed audio and English and Japanese subtitle options, as well as Japanese commentary subtitles.

All of the English language extras (excluding trailers) contain optional Japanese subtitles.

All subtitling is in white font. The English subtitles use typewritten font.

Breakdown of contents:

[Show spoiler]Disc One is the DVD version of the film. Containing all of the extras and commentary on Disc Three (scope version). Please note that the DVD is NTSC format and locked to DVD Region 2.

Disc Two is the IMAX version of the feature, with shifting aspect ratios. The audio commentary is included, but there are no video extras. The only video content on this disc is the Kadokawa logo, the main menu, and the IMAX feature.

The IMAX disc was the version I watched, and the film looks spectacular, but the IMAX footage is a sight to behold.

Disc Three contains the scope version of the film, with the commentary, as well as English and Japanese trailers, a short extra (4:38) with the Japanese voice cast (not English-friendly), and the sneak peek for Divergent. A short Japanese trailer for Divergent rounds out the extras.

Disc Four contains the rest of the English-language extras, including the ones exclusive to Target in the USA. There is also a selection (4:32) of interviews with the cast that have Japanese text questions--this extra may be exclusive to the Japanese release.

Discs Three and Four make up the standard edition Japanese Blu-ray release.

Disc Five is the DVD of Japanese language extras. As mentioned earlier, it contains over 50 minutes of content with the Japanese voice actors. These extras are not English-friendly. Please note that the DVD is NTSC format and locked to DVD Region 2.

The discs are housed in a DVD-sized digipack, which uses similar artwork to the Target digipack released in the US. Kadokawa have also included a Japanese commentary book (which contains information in Japanese, as well as color photos), and a small leaflet with what appears to be a excerpt from the Mackingjay novel in Japanese. Finally, there is also a small two-sided flyer advertising both Divergent and The Hunger Games: Mockingjay - Part 1. The whole set comes in a slipbox with the artwork pictured, which comes wrapped with the usual Japanese Obi info slip and a soft, clear plastic case.


BDInfo scans

Disc Two: IMAX Feature

Code:
                                                                                                                Total   Video                                             
Title                                                           Codec   Length  Movie Size      Disc Size       Bitrate Bitrate Main Audio Track                          Secondary Audio Track
-----                                                           ------  ------- --------------  --------------  ------- ------- ------------------                        ---------------------
00002.MPLS                                                      AVC     2:26:15 48,082,292,736  48,407,130,461  43.83   30.50   Dolby TrueHD 7.1 4338Kbps (48kHz/24-bit)
Code:
DISC INFO:

Disc Title:     HUNGER_GAMES2_BD_IMAX
Disc Size:      48,407,130,461 bytes
Protection:     AACS
BD-Java:        No
BDInfo:         0.5.8

PLAYLIST REPORT:

Name:                   00002.MPLS
Length:                 2:26:15.767 (h:m:s.ms)
Size:                   48,082,292,736 bytes
Total Bitrate:          43.83 Mbps

VIDEO:

Codec                   Bitrate             Description     
-----                   -------             -----------     
MPEG-4 AVC Video        30497 kbps          1080p / 23.976 fps / 16:9 / High Profile 4.1

AUDIO:

Codec                           Language        Bitrate         Description     
-----                           --------        -------         -----------     
Dolby TrueHD Audio              English         4338 kbps       7.1 / 48 kHz / 4338 kbps / 24-bit (AC3 Embedded: 5.1 / 48 kHz / 640 kbps / DN -4dB)
Dolby TrueHD Audio              Japanese        3324 kbps       5.1 / 48 kHz / 3324 kbps / 24-bit (AC3 Embedded: 5.1 / 48 kHz / 640 kbps / DN -4dB)
Dolby Digital Audio             English         192 kbps        2.0 / 48 kHz / 192 kbps / DN -4dB

SUBTITLES:

Codec                           Language        Bitrate         Description     
-----                           --------        -------         -----------     
Presentation Graphics           Japanese        25.003 kbps                     
Presentation Graphics           Japanese        0.189 kbps                      
Presentation Graphics           English         41.083 kbps                     
Presentation Graphics           Japanese        76.842 kbps                     

FILES:

Name            Time In         Length          Size            Total Bitrate   
----            -------         ------          ----            -------------   
00004.M2TS      0:00:00.000     2:26:14.766     48,080,283,648  43,835          
00005.M2TS      2:26:14.766     0:00:01.001     2,009,088       16,057          

CHAPTERS:

Number          Time In         Length          Avg Video Rate  Max 1-Sec Rate  Max 1-Sec Time  Max 5-Sec Rate  Max 5-Sec Time  Max 10Sec Rate  Max 10Sec Time  Avg Frame Size  Max Frame Size  Max Frame Time  
------          -------         ------          --------------  --------------  --------------  --------------  --------------  --------------  --------------  --------------  --------------  --------------  
1               0:00:00.000     0:11:24.892     30,920 kbps     42,091 kbps     00:00:21.187    32,942 kbps     00:01:58.827    32,762 kbps     00:01:54.656    161,195 bytes   640,646 bytes   00:00:00.000    
2               0:11:24.892     0:05:23.364     30,541 kbps     34,860 kbps     00:16:16.266    32,769 kbps     00:11:38.739    32,603 kbps     00:11:34.235    159,228 bytes   337,431 bytes   00:16:16.892    
3               0:16:48.257     0:08:50.029     30,528 kbps     34,187 kbps     00:19:54.067    32,848 kbps     00:24:48.653    32,678 kbps     00:19:45.058    159,158 bytes   379,546 bytes   00:24:54.576    
4               0:25:38.286     0:10:13.571     31,861 kbps     34,323 kbps     00:35:50.857    32,767 kbps     00:30:33.915    32,649 kbps     00:30:30.537    166,108 bytes   373,680 bytes   00:35:51.858    
5               0:35:51.858     0:08:30.927     30,140 kbps     34,350 kbps     00:36:35.943    32,873 kbps     00:36:33.274    32,624 kbps     00:43:27.771    157,136 bytes   429,597 bytes   00:35:54.694    
6               0:44:22.785     0:07:50.344     30,834 kbps     34,611 kbps     00:49:29.883    32,956 kbps     00:49:25.879    32,722 kbps     00:49:20.874    160,756 bytes   492,170 bytes   00:47:12.287    
7               0:52:13.130     0:08:58.454     30,861 kbps     34,520 kbps     00:55:39.794    32,903 kbps     00:55:35.874    32,719 kbps     00:55:30.744    160,896 bytes   415,723 bytes   00:58:42.060    
8               1:01:11.584     0:07:00.837     32,232 kbps     36,387 kbps     01:07:44.560    33,115 kbps     01:07:40.556    32,768 kbps     01:04:06.634    168,043 bytes   342,489 bytes   01:07:09.191    
9               1:08:12.421     0:08:36.515     31,678 kbps     35,255 kbps     01:10:59.880    32,881 kbps     01:14:25.377    32,643 kbps     01:09:44.138    165,153 bytes   395,442 bytes   01:12:19.168    
10              1:16:48.937     0:05:50.933     31,680 kbps     35,279 kbps     01:20:33.537    33,057 kbps     01:20:26.613    32,760 kbps     01:20:21.650    165,166 bytes   326,153 bytes   01:19:51.578    
11              1:22:39.871     0:06:42.068     31,679 kbps     35,282 kbps     01:26:42.030    33,115 kbps     01:24:12.422    32,810 kbps     01:26:41.738    165,159 bytes   527,205 bytes   01:26:42.989    
12              1:29:21.939     0:11:22.181     28,404 kbps     34,584 kbps     01:30:08.444    32,926 kbps     01:30:17.537    32,722 kbps     01:29:59.685    148,086 bytes   441,110 bytes   01:39:44.770    
13              1:40:44.121     0:10:03.853     30,443 kbps     34,999 kbps     01:47:16.555    32,909 kbps     01:48:13.820    32,783 kbps     01:47:37.159    158,716 bytes   415,841 bytes   01:47:17.013    
14              1:50:47.974     0:11:59.218     32,400 kbps     37,152 kbps     01:55:24.292    33,420 kbps     01:54:16.432    32,862 kbps     01:54:11.427    168,921 bytes   497,344 bytes   01:56:45.081    
15              2:02:47.193     0:07:11.556     28,617 kbps     34,910 kbps     02:03:28.192    32,961 kbps     02:09:50.115    32,522 kbps     02:09:29.428    149,193 bytes   524,319 bytes   02:03:08.297    
16              2:09:58.749     0:16:16.016     27,794 kbps     46,645 kbps     02:15:29.329    35,354 kbps     02:15:25.325    33,936 kbps     02:15:20.320    144,910 bytes   640,646 bytes   02:13:58.864    
17              2:26:14.766     0:00:01.001     9,891 kbps      0 kbps          00:00:00.000    0 kbps          00:00:00.000    0 kbps          00:00:00.000    53,812 bytes    928,173 bytes   02:26:15.725    

STREAM DIAGNOSTICS:

File            PID             Type            Codec           Language                Seconds                 Bitrate                 Bytes           Packets         
----            ---             ----            -----           --------                --------------          --------------          -------------   -----           
00004.M2TS      4113 (0x1011)   0x1B            AVC                                     8774.599                30,500                  33,452,883,665  181,931,448     
00004.M2TS      4352 (0x1100)   0x83            TrueHD          eng (English)           8774.599                4,979                   5,460,605,648   36,296,094      
00004.M2TS      4353 (0x1101)   0x83            TrueHD          jpn (Japanese)          8774.599                3,964                   4,348,045,012   29,636,435      
00004.M2TS      4354 (0x1102)   0x81            AC3             eng (English)           8774.599                192                     210,594,048     1,371,055       
00004.M2TS      4608 (0x1200)   0x90            PGS             jpn (Japanese)          8774.599                25                      27,427,581      159,415         
00004.M2TS      4609 (0x1201)   0x90            PGS             jpn (Japanese)          8774.599                0                       207,453         1,264           
00004.M2TS      4610 (0x1202)   0x90            PGS             eng (English)           8774.599                41                      45,067,022      255,804         
00004.M2TS      4611 (0x1203)   0x90            PGS             jpn (Japanese)          8774.599                77                      84,293,255      472,647         
00005.M2TS      4113 (0x1011)   0x1B            AVC                                     0.834                   12,005                  1,251,813       6,816           
00005.M2TS      4352 (0x1100)   0x83            TrueHD          eng (English)           0.834                   2,168                   226,046         1,687           
00005.M2TS      4353 (0x1101)   0x83            TrueHD          jpn (Japanese)          0.834                   1,144                   119,236         1,681           
00005.M2TS      4354 (0x1102)   0x81            AC3             eng (English)           0.834                   228                     23,808          155             
00005.M2TS      4608 (0x1200)   0x90            PGS             jpn (Japanese)          0.834                   4                       380             9               
00005.M2TS      4609 (0x1201)   0x90            PGS             jpn (Japanese)          0.834                   4                       380             9               
00005.M2TS      4610 (0x1202)   0x90            PGS             eng (English)           0.834                   4                       380             9               
00005.M2TS      4611 (0x1203)   0x90            PGS             jpn (Japanese)          0.834                   4                       380             9
Disc Three: Scope Feature

Code:
                                                                                                                Total   Video                                             
Title                                                           Codec   Length  Movie Size      Disc Size       Bitrate Bitrate Main Audio Track                          Secondary Audio Track
-----                                                           ------  ------- --------------  --------------  ------- ------- ------------------                        ---------------------
00002.MPLS                                                      AVC     2:26:15 44,992,432,128  48,714,701,015  41.02   27.80   Dolby TrueHD 7.1 4338Kbps (48kHz/24-bit)
Code:
DISC INFO:

Disc Title:     HUNGER_GAMES2_BD_RETAIL
Disc Size:      48,714,701,015 bytes
Protection:     AACS
BD-Java:        No
BDInfo:         0.5.8

PLAYLIST REPORT:

Name:                   00002.MPLS
Length:                 2:26:15.767 (h:m:s.ms)
Size:                   44,992,432,128 bytes
Total Bitrate:          41.02 Mbps

VIDEO:

Codec                   Bitrate             Description     
-----                   -------             -----------     
MPEG-4 AVC Video        27797 kbps          1080p / 23.976 fps / 16:9 / High Profile 4.1

AUDIO:

Codec                           Language        Bitrate         Description     
-----                           --------        -------         -----------     
Dolby TrueHD Audio              English         4338 kbps       7.1 / 48 kHz / 4338 kbps / 24-bit (AC3 Embedded: 5.1 / 48 kHz / 640 kbps / DN -4dB)
Dolby TrueHD Audio              Japanese        3324 kbps       5.1 / 48 kHz / 3324 kbps / 24-bit (AC3 Embedded: 5.1 / 48 kHz / 640 kbps / DN -4dB)
Dolby Digital Audio             English         192 kbps        2.0 / 48 kHz / 192 kbps / DN -4dB

SUBTITLES:

Codec                           Language        Bitrate         Description     
-----                           --------        -------         -----------     
Presentation Graphics           Japanese        25.003 kbps                     
Presentation Graphics           Japanese        0.189 kbps                      
Presentation Graphics           English         41.083 kbps                     
Presentation Graphics           Japanese        76.995 kbps                     

FILES:

Name            Time In         Length          Size            Total Bitrate   
----            -------         ------          ----            -------------   
00004.M2TS      0:00:00.000     2:26:14.766     44,990,423,040  41,018          
00005.M2TS      2:26:14.766     0:00:01.001     2,009,088       16,057          

CHAPTERS:

Number          Time In         Length          Avg Video Rate  Max 1-Sec Rate  Max 1-Sec Time  Max 5-Sec Rate  Max 5-Sec Time  Max 10Sec Rate  Max 10Sec Time  Avg Frame Size  Max Frame Size  Max Frame Time  
------          -------         ------          --------------  --------------  --------------  --------------  --------------  --------------  --------------  --------------  --------------  --------------  
1               0:00:00.000     0:11:24.892     28,104 kbps     39,792 kbps     00:00:21.146    32,861 kbps     00:01:58.910    32,714 kbps     00:01:54.656    146,511 bytes   640,646 bytes   00:00:00.000    
2               0:11:24.892     0:05:23.364     27,755 kbps     33,692 kbps     00:11:42.743    32,683 kbps     00:11:43.369    32,532 kbps     00:11:37.655    144,702 bytes   329,410 bytes   00:14:40.713    
3               0:16:48.257     0:08:50.029     28,053 kbps     33,730 kbps     00:25:33.323    32,712 kbps     00:24:31.052    32,415 kbps     00:19:24.913    146,258 bytes   368,089 bytes   00:24:55.160    
4               0:25:38.286     0:10:13.571     29,886 kbps     33,988 kbps     00:28:32.961    32,715 kbps     00:25:39.246    32,638 kbps     00:30:22.153    155,813 bytes   380,146 bytes   00:35:51.858    
5               0:35:51.858     0:08:30.927     27,205 kbps     34,264 kbps     00:36:34.483    32,644 kbps     00:36:55.713    32,121 kbps     00:37:06.098    141,837 bytes   395,689 bytes   00:43:30.065    
6               0:44:22.785     0:07:50.344     28,576 kbps     34,673 kbps     00:49:29.925    32,961 kbps     00:49:25.879    32,753 kbps     00:49:20.874    148,980 bytes   486,806 bytes   00:47:12.287    
7               0:52:13.130     0:08:58.454     28,978 kbps     34,060 kbps     00:58:41.100    32,824 kbps     00:59:09.128    32,628 kbps     00:58:32.050    151,076 bytes   411,738 bytes   00:58:42.060    
8               1:01:11.584     0:07:00.837     30,755 kbps     34,850 kbps     01:04:15.560    33,089 kbps     01:04:11.514    32,779 kbps     01:04:06.509    160,342 bytes   342,009 bytes   01:07:09.191    
9               1:08:12.421     0:08:36.515     29,694 kbps     35,732 kbps     01:10:39.360    32,854 kbps     01:08:29.230    32,610 kbps     01:09:01.846    154,809 bytes   391,149 bytes   01:12:19.710    
10              1:16:48.937     0:05:50.933     29,588 kbps     35,111 kbps     01:20:30.659    33,029 kbps     01:20:26.613    32,508 kbps     01:20:35.872    154,258 bytes   308,481 bytes   01:21:08.905    
11              1:22:39.871     0:06:42.068     28,167 kbps     35,606 kbps     01:22:46.252    32,916 kbps     01:26:46.784    32,664 kbps     01:26:43.948    146,848 bytes   472,475 bytes   01:26:42.989    
12              1:29:21.939     0:11:22.181     24,254 kbps     34,245 kbps     01:30:08.444    32,851 kbps     01:30:04.440    32,667 kbps     01:30:18.454    126,447 bytes   553,234 bytes   01:39:41.100    
13              1:40:44.121     0:10:03.853     27,452 kbps     34,439 kbps     01:48:17.782    32,966 kbps     01:47:43.665    32,672 kbps     01:47:37.242    143,120 bytes   410,372 bytes   01:47:17.013    
14              1:50:47.974     0:11:59.218     29,765 kbps     36,159 kbps     01:54:25.400    32,895 kbps     01:56:39.200    32,694 kbps     01:56:14.592    155,183 bytes   464,799 bytes   01:55:06.065    
15              2:02:47.193     0:07:11.556     23,721 kbps     35,549 kbps     02:09:22.045    32,348 kbps     02:09:27.593    30,900 kbps     02:09:27.593    123,673 bytes   482,688 bytes   02:07:47.034    
16              2:09:58.749     0:16:16.016     25,413 kbps     43,246 kbps     02:15:29.287    33,732 kbps     02:15:25.283    32,771 kbps     02:15:20.320    132,500 bytes   640,646 bytes   02:13:58.864    
17              2:26:14.766     0:00:01.001     9,891 kbps      0 kbps          00:00:00.000    0 kbps          00:00:00.000    0 kbps          00:00:00.000    53,812 bytes    928,173 bytes   02:26:15.725    

STREAM DIAGNOSTICS:

File            PID             Type            Codec           Language                Seconds                 Bitrate                 Bytes           Packets         
----            ---             ----            -----           --------                --------------          --------------          -------------   -----           
00004.M2TS      4113 (0x1011)   0x1B            AVC                                     8774.599                27,800                  30,491,531,423  165,837,492     
00004.M2TS      4352 (0x1100)   0x83            TrueHD          eng (English)           8774.599                4,979                   5,460,605,648   36,296,094      
00004.M2TS      4353 (0x1101)   0x83            TrueHD          jpn (Japanese)          8774.599                3,964                   4,348,045,012   29,636,435      
00004.M2TS      4354 (0x1102)   0x81            AC3             eng (English)           8774.599                192                     210,594,048     1,371,055       
00004.M2TS      4608 (0x1200)   0x90            PGS             jpn (Japanese)          8774.599                25                      27,427,581      159,415         
00004.M2TS      4609 (0x1201)   0x90            PGS             jpn (Japanese)          8774.599                0                       207,453         1,264           
00004.M2TS      4610 (0x1202)   0x90            PGS             eng (English)           8774.599                41                      45,067,022      255,804         
00004.M2TS      4611 (0x1203)   0x90            PGS             jpn (Japanese)          8774.599                77                      84,460,756      473,564         
00005.M2TS      4113 (0x1011)   0x1B            AVC                                     0.834                   12,005                  1,251,813       6,816           
00005.M2TS      4352 (0x1100)   0x83            TrueHD          eng (English)           0.834                   2,168                   226,046         1,687           
00005.M2TS      4353 (0x1101)   0x83            TrueHD          jpn (Japanese)          0.834                   1,144                   119,236         1,681           
00005.M2TS      4354 (0x1102)   0x81            AC3             eng (English)           0.834                   228                     23,808          155             
00005.M2TS      4608 (0x1200)   0x90            PGS             jpn (Japanese)          0.834                   4                       380             9               
00005.M2TS      4609 (0x1201)   0x90            PGS             jpn (Japanese)          0.834                   4                       380             9               
00005.M2TS      4610 (0x1202)   0x90            PGS             eng (English)           0.834                   4                       380             9               
00005.M2TS      4611 (0x1203)   0x90            PGS             jpn (Japanese)          0.834                   4                       380             9
"You might very well think that; I couldn't possibly comment."
  Reply With Quote
Old 04-19-2014, 06:10 AM   #9
McCrutchy McCrutchy is offline
Contributor
 
McCrutchy's Avatar
 
Dec 2008
East Coast, USA
2
1052
98
5
11
Default

Disc Four (example): Surviving the Game: Making The Hunger Games: Catching Fire

Code:
                                                                                                                Total   Video                                             
Title                                                           Codec   Length  Movie Size      Disc Size       Bitrate Bitrate Main Audio Track                          Secondary Audio Track
-----                                                           ------  ------- --------------  --------------  ------- ------- ------------------                        ---------------------
00002.MPLS                                                      AVC     2:24:48 31,854,796,800  44,425,148,169  29.33   27.49   DD AC3 2.0 448Kbps
Code:
DISC INFO:

Disc Title:     HUNGER_GAMES2_BD_SP
Disc Size:      44,425,148,169 bytes
Protection:     AACS
BD-Java:        No
BDInfo:         0.5.8

PLAYLIST REPORT:

Name:                   00002.MPLS
Length:                 2:24:48.763 (h:m:s.ms)
Size:                   31,854,796,800 bytes
Total Bitrate:          29.33 Mbps

VIDEO:

Codec                   Bitrate             Description     
-----                   -------             -----------     
MPEG-4 AVC Video        27491 kbps          1080p / 23.976 fps / 16:9 / High Profile 4.1

AUDIO:

Codec                           Language        Bitrate         Description     
-----                           --------        -------         -----------     
Dolby Digital Audio             English         448 kbps        2.0 / 48 kHz / 448 kbps / DN -4dB

SUBTITLES:

Codec                           Language        Bitrate         Description     
-----                           --------        -------         -----------     
Presentation Graphics           Japanese        83.556 kbps                     

FILES:

Name            Time In         Length          Size            Total Bitrate   
----            -------         ------          ----            -------------   
00004.M2TS      0:00:00.000     0:11:01.285     2,425,208,832   29,339          
00005.M2TS      0:11:01.285     0:12:57.485     2,851,067,904   29,336          
00006.M2TS      0:23:58.770     0:17:55.699     3,942,844,416   29,323          
00007.M2TS      0:41:54.470     0:16:39.790     3,665,903,616   29,333          
00008.M2TS      0:58:34.260     0:15:12.953     3,345,831,936   29,319          
00009.M2TS      1:13:47.214     0:19:46.184     4,348,772,352   29,329          
00010.M2TS      1:33:33.399     0:14:29.577     3,188,858,880   29,337          
00011.M2TS      1:48:02.976     0:27:35.612     6,071,586,816   29,338          
00012.M2TS      2:15:38.588     0:09:09.173     2,013,339,648   29,329          
00019.M2TS      2:24:47.762     0:00:01.001     1,382,400       11,048          

CHAPTERS:

Number          Time In         Length          Avg Video Rate  Max 1-Sec Rate  Max 1-Sec Time  Max 5-Sec Rate  Max 5-Sec Time  Max 10Sec Rate  Max 10Sec Time  Avg Frame Size  Max Frame Size  Max Frame Time  
------          -------         ------          --------------  --------------  --------------  --------------  --------------  --------------  --------------  --------------  --------------  --------------  
1               0:00:00.000     0:06:49.659     28,302 kbps     41,830 kbps     00:00:19.227    37,993 kbps     00:00:03.461    37,272 kbps     00:01:20.622    147,540 bytes   413,926 bytes   00:06:05.281    
2               0:06:49.659     0:04:11.626     26,171 kbps     40,003 kbps     00:08:52.323    37,401 kbps     00:08:48.277    37,112 kbps     00:08:52.782    136,446 bytes   338,897 bytes   00:07:29.657    
3               0:11:01.285     0:04:05.119     27,588 kbps     41,700 kbps     00:13:12.249    38,619 kbps     00:13:27.306    36,609 kbps     00:13:27.181    143,831 bytes   623,005 bytes   00:11:15.383    
4               0:15:06.405     0:08:52.365     27,448 kbps     40,778 kbps     00:19:14.403    37,953 kbps     00:22:07.784    37,786 kbps     00:22:06.450    143,102 bytes   526,900 bytes   00:15:24.298    
5               0:23:58.770     0:11:31.232     26,658 kbps     41,766 kbps     00:26:30.922    38,175 kbps     00:25:54.177    37,789 kbps     00:28:26.996    138,984 bytes   427,304 bytes   00:25:54.302    
6               0:35:30.002     0:06:24.467     28,991 kbps     46,012 kbps     00:41:51.717    38,403 kbps     00:40:06.946    37,744 kbps     00:40:15.246    151,145 bytes   503,047 bytes   00:41:53.344    
7               0:41:54.470     0:07:21.315     27,166 kbps     39,729 kbps     00:45:31.019    38,138 kbps     00:45:30.519    35,497 kbps     00:45:26.098    141,631 bytes   450,370 bytes   00:42:04.480    
8               0:49:15.786     0:09:18.474     27,754 kbps     41,018 kbps     00:56:29.511    38,111 kbps     00:53:35.170    36,206 kbps     00:56:36.851    144,697 bytes   498,843 bytes   00:58:33.218    
9               0:58:34.260     0:08:12.492     26,184 kbps     42,438 kbps     00:59:37.323    37,855 kbps     01:02:11.310    36,884 kbps     00:59:28.231    136,512 bytes   636,872 bytes   01:06:17.264    
10              1:06:46.752     0:07:00.461     29,031 kbps     39,484 kbps     01:13:00.250    38,029 kbps     01:12:54.203    37,842 kbps     01:12:54.745    151,354 bytes   423,536 bytes   01:13:46.046    
11              1:13:47.214     0:10:49.231     26,198 kbps     41,830 kbps     01:20:24.110    38,108 kbps     01:20:57.102    37,995 kbps     01:20:40.418    136,585 bytes   424,939 bytes   01:20:29.741    
12              1:24:36.446     0:08:56.953     29,058 kbps     40,748 kbps     01:31:05.251    38,133 kbps     01:31:27.106    37,796 kbps     01:31:22.518    151,495 bytes   467,992 bytes   01:29:07.425    
13              1:33:33.399     0:07:07.260     28,192 kbps     41,881 kbps     01:33:38.237    38,091 kbps     01:33:44.452    36,749 kbps     01:35:15.000    146,982 bytes   639,498 bytes   01:33:43.200    
14              1:40:40.659     0:07:22.316     26,826 kbps     39,521 kbps     01:40:57.968    38,032 kbps     01:42:04.576    34,844 kbps     01:42:00.447    139,859 bytes   609,935 bytes   01:45:13.098    
15              1:48:02.976     0:08:00.605     28,119 kbps     38,990 kbps     01:54:14.764    34,194 kbps     01:54:40.623    32,934 kbps     01:48:38.845    146,601 bytes   353,418 bytes   01:48:12.777    
16              1:56:03.581     0:09:45.459     27,162 kbps     41,765 kbps     02:03:54.885    38,161 kbps     02:02:15.745    37,807 kbps     02:04:37.886    141,608 bytes   638,525 bytes   02:05:27.436    
17              2:05:49.041     0:09:49.547     27,304 kbps     40,960 kbps     02:12:30.275    38,276 kbps     02:12:26.229    35,481 kbps     02:12:25.854    142,350 bytes   511,066 bytes   02:06:52.813    
18              2:15:38.588     0:09:09.173     27,491 kbps     42,835 kbps     02:22:46.724    38,667 kbps     02:23:12.375    38,173 kbps     02:23:07.328    143,325 bytes   430,216 bytes   02:17:47.467    
19              2:24:47.762     0:00:01.001     9,891 kbps      0 kbps          00:00:00.000    0 kbps          00:00:00.000    0 kbps          00:00:00.000    53,812 bytes    928,173 bytes   02:24:48.721    

STREAM DIAGNOSTICS:

File            PID             Type            Codec           Language                Seconds                 Bitrate                 Bytes           Packets         
----            ---             ----            -----           --------                --------------          --------------          -------------   -----           
00004.M2TS      4113 (0x1011)   0x1B            AVC                                     661.119                 27,498                  2,272,464,870   12,359,551      
00004.M2TS      4352 (0x1100)   0x81            AC3             eng (English)           661.119                 448                     37,031,680      206,650         
00004.M2TS      4608 (0x1200)   0x90            PGS             jpn (Japanese)          661.119                 92                      7,609,373       42,904          
00005.M2TS      4113 (0x1011)   0x1B            AVC                                     777.318                 27,498                  2,671,855,523   14,531,704      
00005.M2TS      4352 (0x1100)   0x81            AC3             eng (English)           777.318                 448                     43,538,432      242,960         
00005.M2TS      4608 (0x1200)   0x90            PGS             jpn (Japanese)          777.318                 89                      8,633,812       48,578          
00006.M2TS      4113 (0x1011)   0x1B            AVC                                     1075.533                27,496                  3,696,632,274   20,105,431      
00006.M2TS      4352 (0x1100)   0x81            AC3             eng (English)           1075.533                448                     60,239,872      336,160         
00006.M2TS      4608 (0x1200)   0x90            PGS             jpn (Japanese)          1075.533                76                      10,220,761      57,997          
00007.M2TS      4113 (0x1011)   0x1B            AVC                                     999.624                 27,499                  3,436,090,957   18,688,257      
00007.M2TS      4352 (0x1100)   0x81            AC3             eng (English)           999.624                 448                     55,987,456      312,430         
00007.M2TS      4608 (0x1200)   0x90            PGS             jpn (Japanese)          999.624                 84                      10,444,302      59,043          
00008.M2TS      4113 (0x1011)   0x1B            AVC                                     912.787                 27,500                  3,137,732,197   17,065,689      
00008.M2TS      4352 (0x1100)   0x81            AC3             eng (English)           912.787                 448                     51,125,760      285,300         
00008.M2TS      4608 (0x1200)   0x90            PGS             jpn (Japanese)          912.787                 69                      7,860,179       44,592          
00009.M2TS      4113 (0x1011)   0x1B            AVC                                     1186.018                27,497                  4,076,430,724   22,171,116      
00009.M2TS      4352 (0x1100)   0x81            AC3             eng (English)           1186.018                448                     66,425,856      370,680         
00009.M2TS      4608 (0x1200)   0x90            PGS             jpn (Japanese)          1186.018                81                      12,057,429      68,279          
00010.M2TS      4113 (0x1011)   0x1B            AVC                                     869.410                 27,503                  2,988,891,587   16,256,103      
00010.M2TS      4352 (0x1100)   0x81            AC3             eng (English)           869.410                 448                     48,695,808      271,740         
00010.M2TS      4608 (0x1200)   0x90            PGS             jpn (Japanese)          869.410                 84                      9,135,216       51,621          
00011.M2TS      4113 (0x1011)   0x1B            AVC                                     1655.445                27,493                  5,689,153,898   30,942,516      
00011.M2TS      4352 (0x1100)   0x81            AC3             eng (English)           1655.445                448                     92,714,496      517,380         
00011.M2TS      4608 (0x1200)   0x90            PGS             jpn (Japanese)          1655.445                92                      19,070,855      107,441         
00012.M2TS      4113 (0x1011)   0x1B            AVC                                     549.007                 27,499                  1,887,142,965   10,263,822      
00012.M2TS      4352 (0x1100)   0x81            AC3             eng (English)           549.007                 448                     30,754,304      171,620         
00012.M2TS      4608 (0x1200)   0x90            PGS             jpn (Japanese)          549.007                 83                      5,717,306       32,254          
00019.M2TS      4113 (0x1011)   0x1B            AVC                                     0.834                   12,005                  1,251,813       6,816           
00019.M2TS      4352 (0x1100)   0x81            AC3             eng (English)           0.834                   533                     55,552          310             
00019.M2TS      4608 (0x1200)   0x90            PGS             jpn (Japanese)          0.834                   4                       380             9
Attached Images
File Type: jpg HUNGER_GAMES2_BD_SP-00002-bitrate-01s.jpg (20.3 KB, 11 views)
"You might very well think that; I couldn't possibly comment."
  Reply With Quote
Reply
Go Back   Blu-ray Forum > Movies > Blu-ray Movies - International > Asia


Thread Tools
Display Modes

Posting Rules
You may not post new threads
You may not post replies
You may not post attachments
You may not edit your posts

BB code is On
Smilies are On
[IMG] code is On
HTML code is Off

Forum Jump


All times are GMT. The time now is 05:38 AM.