Best Blu-ray Movie Deals

Best Blu-ray Movie Deals, See All the Deals »
Top deals | New deals  
 All countries United States United Kingdom Canada Germany France Spain Italy Japan
Charles Bronson: 4 Movie Collection (Blu-ray)
$4.99
10 hrs ago
Batman: The Complete Animated Series (Blu-ray)
$69.99
15 hrs ago
Spider-Man: Into the Spider-Verse 4K (Blu-ray)
$29.99
 
Robin Hood 4K (Blu-ray)
$24.99
 
Bumblebee 4K (Blu-ray)
$24.99
 
BlacKkKlansman 4K (Blu-ray)
$11.99
 
Robin Hood (Blu-ray)
$19.99
 
The Kid Brother (Blu-ray)
$27.99
12 hrs ago
Judgment Night (Blu-ray)
$17.99
17 hrs ago
The Girl in the Spider's Web (Blu-ray)
$19.95
 
Kung Fu Panda: 3-Movie Collection (Blu-ray)
$14.99
 
Once Upon a Deadpool (Blu-ray)
$14.96
 
What's your next favorite movie?
Join our movie community to find out


Image from: Life of Pi (2012)

Go Back   Blu-ray Forum > Movies > Blu-ray Movies - International > Australia


Reply
 
Thread Tools Display Modes
Old 06-06-2015, 04:57 AM   #1
Anamnesis Anamnesis is offline
Contributor
 
Anamnesis's Avatar
 
Jul 2010
Australia
6
453
1
29
Australia Dead Snow 2 - Red Vs. Dead


I picked this up a few weeks back, but only just got around to watching the disc. It is an odd affair...

The film was shot twice... once in English and once in a mix of English and Norwegian (Technically this is the original given that the film takes place in Norway and a lot of the jokes rely on the language barrier that is supposed to subsist)

Anyway, putting the disc in will present you with a main menu that has a play feature, setup, bonus and sneak preview options.

Going into setup the only options are DTS HD-Master Audio 5.1, two commentaries and English closed captions....this of course is not what the cover art suggested... turns out the 'original' version of the film "Dod Sno 2" is available on this disc only through the bonus features menu and only with Dolby Digital 640kbps Norwegian or French as your audio options and French or English subtitles. This is a separate encode of the film on the disc. The main option is the English version of the film with DTS-HD Master Audio.

Original Version Scan:

Code:
                                                                                                                Total   Video                                             
Title                                                           Codec   Length  Movie Size      Disc Size       Bitrate Bitrate Main Audio Track                          Secondary Audio Track
-----                                                           ------  ------- --------------  --------------  ------- ------- ------------------                        ---------------------
00002.MPLS                                                      AVC     1:40:54 19,441,145,856  45,649,295,613  25.69   23.15   DD AC3 5.1 640Kbps
Code:
DISC INFO:

Disc Title:     DEADSNOW2
Disc Size:      45,649,295,613 bytes
Protection:     AACS
BD-Java:        No
BDInfo:         0.5.8

PLAYLIST REPORT:

Name:                   00002.MPLS
Length:                 1:40:54.291 (h:m:s.ms)
Size:                   19,441,145,856 bytes
Total Bitrate:          25.69 Mbps

VIDEO:

Codec                   Bitrate             Description     
-----                   -------             -----------     
MPEG-4 AVC Video        23145 kbps          1080p / 24 fps / 16:9 / High Profile 4.1

AUDIO:

Codec                           Language        Bitrate         Description     
-----                           --------        -------         -----------     
Dolby Digital Audio             Norwegian       640 kbps        5.1 / 48 kHz / 640 kbps
Dolby Digital Audio             French          640 kbps        5.1 / 48 kHz / 640 kbps

SUBTITLES:

Codec                           Language        Bitrate         Description     
-----                           --------        -------         -----------     
Presentation Graphics           English         22.083 kbps                     
Presentation Graphics           French          0.097 kbps                      

FILES:

Name            Time In         Length          Size            Total Bitrate   
----            -------         ------          ----            -------------   
00004.M2TS      0:00:00.000     1:40:54.291     19,441,145,856  25,689          

CHAPTERS:

Number          Time In         Length          Avg Video Rate  Max 1-Sec Rate  Max 1-Sec Time  Max 5-Sec Rate  Max 5-Sec Time  Max 10Sec Rate  Max 10Sec Time  Avg Frame Size  Max Frame Size  Max Frame Time  
------          -------         ------          --------------  --------------  --------------  --------------  --------------  --------------  --------------  --------------  --------------  --------------  
1               0:00:00.000     0:08:18.333     23,376 kbps     37,646 kbps     00:01:46.041    33,368 kbps     00:01:42.875    30,278 kbps     00:01:42.749    121,738 bytes   496,880 bytes   00:00:44.416    
2               0:08:18.333     0:06:33.500     23,229 kbps     38,827 kbps     00:11:42.416    32,748 kbps     00:11:38.708    31,177 kbps     00:11:34.125    120,987 bytes   382,905 bytes   00:12:46.541    
3               0:14:51.833     0:07:35.708     21,173 kbps     37,780 kbps     00:17:46.375    29,297 kbps     00:17:20.166    28,369 kbps     00:17:45.291    110,278 bytes   478,820 bytes   00:17:48.416    
4               0:22:27.541     0:05:59.166     21,599 kbps     36,623 kbps     00:23:32.291    31,853 kbps     00:23:24.291    29,917 kbps     00:23:24.291    112,495 bytes   408,309 bytes   00:23:25.625    
5               0:28:26.708     0:13:16.625     23,412 kbps     38,329 kbps     00:28:58.166    34,531 kbps     00:38:08.541    32,487 kbps     00:38:08.333    121,935 bytes   385,645 bytes   00:34:08.541    
6               0:41:43.333     0:06:08.750     24,348 kbps     38,238 kbps     00:46:24.666    34,084 kbps     00:46:24.083    31,551 kbps     00:46:23.958    126,815 bytes   426,830 bytes   00:42:39.083    
7               0:47:52.083     0:07:48.833     23,031 kbps     37,806 kbps     00:50:08.000    32,788 kbps     00:49:59.416    31,087 kbps     00:49:59.500    119,952 bytes   431,719 bytes   00:51:28.958    
8               0:55:40.916     0:07:59.583     25,568 kbps     38,076 kbps     00:58:40.166    32,075 kbps     01:01:35.708    31,009 kbps     01:01:32.833    133,167 bytes   442,940 bytes   01:00:21.083    
9               1:03:40.500     0:06:12.833     23,716 kbps     34,191 kbps     01:07:31.958    31,280 kbps     01:07:34.458    30,854 kbps     01:07:30.416    123,519 bytes   473,561 bytes   01:07:35.000    
10              1:09:53.333     0:09:37.708     24,788 kbps     38,524 kbps     01:14:21.625    33,658 kbps     01:10:07.916    31,039 kbps     01:14:20.708    129,104 bytes   420,039 bytes   01:19:19.500    
11              1:19:31.041     0:17:42.208     24,912 kbps     40,447 kbps     01:23:44.166    33,531 kbps     01:23:42.791    30,511 kbps     01:31:12.416    129,748 bytes   440,810 bytes   01:27:55.750    
12              1:37:13.250     0:03:41.041     7,329 kbps      23,117 kbps     01:40:42.083    19,998 kbps     01:40:38.083    19,572 kbps     01:40:33.083    38,180 bytes    383,072 bytes   01:40:27.333    

STREAM DIAGNOSTICS:

File            PID             Type            Codec           Language                Seconds                 Bitrate                 Bytes           Packets         
----            ---             ----            -----           --------                --------------          --------------          -------------   -----           
00004.M2TS      4113 (0x1011)   0x1B            AVC                                     6054.208                23,146                  17,516,016,460  95,280,561      
00004.M2TS      4352 (0x1100)   0x81            AC3             nor (Norwegian)         6054.208                640                     484,352,000     2,838,000       
00004.M2TS      4353 (0x1101)   0x81            AC3             fra (French)            6054.208                640                     484,352,000     2,838,000       
00004.M2TS      4608 (0x1200)   0x90            PGS             eng (English)           6054.208                22                      16,712,023      96,153          
00004.M2TS      4609 (0x1201)   0x90            PGS             fra (French)            6054.208                0                       73,668          413
English Version Scan:

Code:
                                                                                                                Total   Video                                             
Title                                                           Codec   Length  Movie Size      Disc Size       Bitrate Bitrate Main Audio Track                          Secondary Audio Track
-----                                                           ------  ------- --------------  --------------  ------- ------- ------------------                        ---------------------
00001.MPLS                                                      AVC     1:40:33 20,886,004,416  45,649,295,613  27.69   23.08   DTS-HD Master 5.1 2301Kbps (48kHz/16-bit)
Code:
DISC INFO:

Disc Title:     DEADSNOW2
Disc Size:      45,649,295,613 bytes
Protection:     AACS
BD-Java:        No
BDInfo:         0.5.8

PLAYLIST REPORT:

Name:                   00001.MPLS
Length:                 1:40:33.375 (h:m:s.ms)
Size:                   20,886,004,416 bytes
Total Bitrate:          27.69 Mbps

VIDEO:

Codec                   Bitrate             Description     
-----                   -------             -----------     
MPEG-4 AVC Video        23084 kbps          1080p / 24 fps / 16:9 / High Profile 4.1

AUDIO:

Codec                           Language        Bitrate         Description     
-----                           --------        -------         -----------     
DTS-HD Master Audio             English         2301 kbps       5.1 / 48 kHz / 2301 kbps / 16-bit (DTS Core: 5.1 / 48 kHz / 1509 kbps / 16-bit)
Dolby Digital Audio             English         384 kbps        2.0 / 48 kHz / 384 kbps
Dolby Digital Audio             English         384 kbps        2.0 / 48 kHz / 384 kbps

SUBTITLES:

Codec                           Language        Bitrate         Description     
-----                           --------        -------         -----------     
Presentation Graphics           English         22.275 kbps                     

FILES:

Name            Time In         Length          Size            Total Bitrate   
----            -------         ------          ----            -------------   
00015.M2TS      0:00:00.000     0:00:13.000     1,941,504       1,191           
00003.M2TS      0:00:13.000     1:40:20.375     20,884,062,912  27,751          

CHAPTERS:

Number          Time In         Length          Avg Video Rate  Max 1-Sec Rate  Max 1-Sec Time  Max 5-Sec Rate  Max 5-Sec Time  Max 10Sec Rate  Max 10Sec Time  Avg Frame Size  Max Frame Size  Max Frame Time  
------          -------         ------          --------------  --------------  --------------  --------------  --------------  --------------  --------------  --------------  --------------  --------------  
1               0:00:00.000     0:08:28.333     22,951 kbps     38,596 kbps     00:01:56.749    33,559 kbps     00:01:52.958    30,333 kbps     00:07:19.375    119,290 bytes   482,080 bytes   00:00:54.500    
2               0:08:28.333     0:06:31.541     23,239 kbps     38,277 kbps     00:11:50.416    32,737 kbps     00:11:44.166    31,637 kbps     00:11:41.791    121,034 bytes   396,036 bytes   00:08:39.625    
3               0:14:59.875     0:07:33.250     21,457 kbps     37,963 kbps     00:17:51.958    29,471 kbps     00:17:26.250    27,901 kbps     00:17:50.875    111,756 bytes   476,264 bytes   00:17:54.000    
4               0:22:33.125     0:05:57.708     21,789 kbps     38,370 kbps     00:23:37.875    31,526 kbps     00:23:29.875    30,079 kbps     00:23:29.875    113,484 bytes   420,311 bytes   00:23:32.916    
5               0:28:30.833     0:12:54.416     23,360 kbps     38,441 kbps     00:31:41.083    34,351 kbps     00:37:53.250    32,443 kbps     00:37:53.041    121,666 bytes   413,102 bytes   00:39:12.583    
6               0:41:25.250     0:06:11.000     24,392 kbps     38,641 kbps     00:46:08.833    34,313 kbps     00:46:08.291    31,562 kbps     00:46:08.125    127,044 bytes   419,514 bytes   00:46:15.666    
7               0:47:36.250     0:07:56.625     22,958 kbps     37,665 kbps     00:49:52.166    32,640 kbps     00:49:43.583    30,933 kbps     00:49:43.666    119,574 bytes   450,757 bytes   00:51:12.125    
8               0:55:32.875     0:07:59.583     25,557 kbps     37,634 kbps     00:58:34.416    32,102 kbps     01:01:29.250    30,963 kbps     01:01:24.250    133,110 bytes   441,837 bytes   01:00:12.041    
9               1:03:32.458     0:06:11.750     23,549 kbps     33,498 kbps     01:07:22.833    31,324 kbps     01:07:25.333    30,383 kbps     01:07:21.291    122,651 bytes   481,816 bytes   01:07:28.875    
10              1:09:44.208     0:09:34.458     24,737 kbps     38,918 kbps     01:10:00.458    34,135 kbps     01:09:58.791    31,502 kbps     01:14:07.833    128,839 bytes   429,243 bytes   01:19:07.125    
11              1:19:18.666     0:17:23.125     24,815 kbps     40,453 kbps     01:23:28.625    33,469 kbps     01:23:27.250    30,333 kbps     01:30:51.333    129,243 bytes   452,156 bytes   01:28:00.750    
12              1:36:41.791     0:03:51.583     7,770 kbps      23,120 kbps     01:40:11.041    20,051 kbps     01:40:07.041    19,654 kbps     01:40:02.041    40,476 bytes    383,325 bytes   01:39:56.291    

STREAM DIAGNOSTICS:

File            PID             Type            Codec           Language                Seconds                 Bitrate                 Bytes           Packets         
----            ---             ----            -----           --------                --------------          --------------          -------------   -----           
00015.M2TS      4113 (0x1011)   0x1B            AVC                                     13.875                  863                     1,497,240       8,241           
00015.M2TS      4352 (0x1100)   0x81            AC3             eng (English)           13.875                  47                      81,920          480             
00015.M2TS      4353 (0x1101)   0x81            AC3             eng (English)           13.875                  47                      81,920          480             
00015.M2TS      4354 (0x1102)   0x81            AC3             eng (English)           13.875                  47                      81,920          480             
00015.M2TS      4608 (0x1200)   0x90            PGS             eng (English)           13.875                  5                       7,842           50              
00003.M2TS      4113 (0x1011)   0x1B            AVC                                     6021.292                23,129                  17,408,121,031  94,693,556      
00003.M2TS      4352 (0x1100)   0x86            DTS-HD MA       eng (English)           6021.292                2,305                   1,735,180,556   10,395,961      
00003.M2TS      4353 (0x1101)   0x81            AC3             eng (English)           6021.292                384                     289,019,904     1,693,476       
00003.M2TS      4354 (0x1102)   0x81            AC3             eng (English)           6021.292                384                     289,019,904     1,693,476       
00003.M2TS      4608 (0x1200)   0x90            PGS             eng (English)           6021.292                22                      16,791,631      96,403
  Reply With Quote
Thanks given by:
Davidian (06-06-2015), LordCrumb (06-06-2015)
Old 06-06-2015, 06:37 AM   #2
PLG1962 PLG1962 is online now
Blu-ray Samurai
 
PLG1962's Avatar
 
Jun 2014
Melbourne Australia
1747
145
8
Default

Thanks for the reminder this is part of the 2 for $20 deal at JB
  Reply With Quote
Old 01-06-2019, 07:38 PM   #3
Davidian Davidian is offline
Blu-ray Guru
 
Davidian's Avatar
 
Jun 2008
Perth
1982
4
10
Default

Strange that the original never got a release here...
  Reply With Quote
Old 01-06-2019, 08:18 PM   #4
Alister_M Alister_M is online now
Blu-ray Knight
 
Alister_M's Avatar
 
Feb 2016
1051
9
2
Default

Original is definitely due for a reissue, hopefully someone at Madman decides it's worth it, and can source a 1080p transfer (most existing BD releases are 1080i).
  Reply With Quote
Old 01-06-2019, 10:10 PM   #5
Anamnesis Anamnesis is offline
Contributor
 
Anamnesis's Avatar
 
Jul 2010
Australia
6
453
1
29
Default

well this version is now out of print too so both could do with a reissue really...
  Reply With Quote
Old 01-06-2019, 10:38 PM   #6
Alister_M Alister_M is online now
Blu-ray Knight
 
Alister_M's Avatar
 
Feb 2016
1051
9
2
Default

Quote:
Originally Posted by Anamnesis View Post
well this version is now out of print too so both could do with a reissue really...
A re-authoring with lossless Norwegian audio would be ideal. I'll probably just end up importing the US release of the first one, even though it's still rather pricey.
  Reply With Quote
Reply
Go Back   Blu-ray Forum > Movies > Blu-ray Movies - International > Australia


Thread Tools
Display Modes

Posting Rules
You may not post new threads
You may not post replies
You may not post attachments
You may not edit your posts

BB code is On
Smilies are On
[IMG] code is On
HTML code is Off

Forum Jump


All times are GMT. The time now is 08:10 PM.