Best Blu-ray Movie Deals


Best Blu-ray Movie Deals, See All the Deals »
Top deals | New deals  
 All countries United States United Kingdom Canada Germany France Spain Italy Australia Netherlands Japan Mexico
Indiana Jones: 4-Movie Collection 4K (Blu-ray)
$65.69
1 day ago
The Shawshank Redemption 4K (Blu-ray)
$25.99
8 hrs ago
The Transformers: The Movie 4K (Blu-ray)
$18.99
8 hrs ago
Minari (Blu-ray)
$7.99
9 hrs ago
100 Years of Olympic Films: 1912-2012 (Blu-ray)
$169.99
1 day ago
The Thing 4K (Blu-ray)
$22.99
1 day ago
Ghost in the Shell 4K (Blu-ray)
$9.99
8 hrs ago
Chaos Walking 4K (Blu-ray)
$14.99
7 hrs ago
Voyagers 4K (Blu-ray)
$14.99
4 hrs ago
Saw 4K (Blu-ray)
$11.99
6 hrs ago
The Courier (Blu-ray)
$10.99
6 hrs ago
Elysium 4K (Blu-ray)
$14.99
9 hrs ago
What's your next favorite movie?
Join our movie community to find out


Image from: Life of Pi (2012)

Go Back   Blu-ray Forum > Movies > Blu-ray Movies - North America

Reply
 
Thread Tools Display Modes
Old 06-04-2009, 09:40 PM   #181
equivalent equivalent is offline
Junior Member
 
Feb 2009
1
Default

The following volume is the only one of the series I have, sorry...

Masters Of Horror: Season 1 Volume IV

EDIT: I have pasted individual episode specs below, but here are the averages for all 4 combined, in 'list' format:

Code:
									Video						Total
Title								Codec	Bitrate	Length	Movie Size	Disc Size	Bitrate	Main Audio Track		Secondary Audio Track
-----								------	-------	-------	--------------	--------------	-------	--------------------------	---------------------

Masters Of Horror: Season 1, Vol IV - 4 Episodes (1080i29.97)	AVC	20.23	4:01:31	49,128,400,896	49,705,164,706	27.12	LPCM 5.1 4608Kbps 16-bit	DD AC3 5.1 640Kbps
Individual episode specs:
(4 stories - 'Imprint', 'Haeckel's Tale', 'Homecoming' and 'Chocolate')

"Imprint"

<--- BEGIN FORUMS PASTE --->
Code:
                                                                                                                Total   Video                                             
Title                                                           Codec   Length  Movie Size      Disc Size       Bitrate Bitrate Main Audio Track                          Secondary Audio Track
-----                                                           ------  ------- --------------  --------------  ------- ------- ------------------                        ---------------------
00000.MPLS                                                      AVC     1:03:17 12,824,997,888  49,705,164,706  27.02   20.14   LPCM 5.1 4608Kbps (48kHz/16-bit)          DD AC3 5.1 640Kbps
Code:
DISC INFO:

Disc Title:     MASTERS_OF_HORROR
Disc Size:      49,705,164,706 bytes
Protection:     AACS
BD-Java:        No
BDInfo:         0.5.2

PLAYLIST REPORT:

Name:                   00000.MPLS
Size:                   12,824,997,888 bytes
Length:                 1:03:17 (h:m:s)
Total Bitrate:          27.02 Mbps
Description:            

VIDEO:

Codec                   Bitrate             Description     
-----                   -------             -----------     
MPEG-4 AVC Video        20141 kbps          1080i / 29.970 fps / 16:9 / High Profile 4.1

AUDIO:

Codec                           Language        Bitrate         Description     
-----                           --------        -------         -----------     
LPCM Audio                      English         4608 kbps       5.1 / 48 kHz / 4608 kbps / 16-bit
Dolby Digital Audio             English         640 kbps        5.1 / 48 kHz / 640 kbps
Dolby Digital Audio             English         192 kbps        2.0 / 48 kHz / 192 kbps

SUBTITLES:

Codec                           Language        Bitrate         Description     
-----                           --------        -------         -----------     
Presentation Graphics           English         19.967 kbps                     

FILES:

Name            Time In         Length          Size            Total Bitrate   
----            -------         ------          ----            -------------   
00000.M2TS      0:00:00.000     1:03:17.794     12,824,997,888  27,016          

CHAPTERS:

Number          Time In         Length          Avg Video Rate  Max 1-Sec Rate  Max 1-Sec Time  Max 5-Sec Rate  Max 5-Sec Time  Max 10Sec Rate  Max 10Sec Time  Avg Frame Size  Max Frame Size  Max Frame Time  
------          -------         ------          --------------  --------------  --------------  --------------  --------------  --------------  --------------  --------------  --------------  --------------  
1               0:00:00.000     0:01:15.508     31,311 kbps     48,197 kbps     00:00:01.968    34,400 kbps     00:00:29.696    33,389 kbps     00:00:50.683    130,534 bytes   490,870 bytes   00:00:06.706    
2               0:01:15.508     0:07:05.792     19,598 kbps     40,132 kbps     00:05:23.823    29,781 kbps     00:05:51.417    27,643 kbps     00:05:51.417    81,739 bytes    459,941 bytes   00:05:24.424    
3               0:08:21.300     0:08:40.887     20,115 kbps     35,527 kbps     00:16:23.282    28,016 kbps     00:14:41.013    27,436 kbps     00:14:40.980    83,896 bytes    607,625 bytes   00:09:42.148    
4               0:17:02.187     0:07:34.287     19,718 kbps     38,373 kbps     00:20:31.129    34,818 kbps     00:17:08.560    32,367 kbps     00:20:39.705    82,238 bytes    481,571 bytes   00:20:43.175    
5               0:24:36.475     0:09:33.639     21,330 kbps     33,194 kbps     00:32:03.888    28,245 kbps     00:31:59.817    27,518 kbps     00:31:54.812    88,964 bytes    456,838 bytes   00:32:53.738    
6               0:34:10.114     0:08:50.463     17,584 kbps     41,983 kbps     00:39:22.193    37,508 kbps     00:39:21.892    32,805 kbps     00:39:16.987    73,340 bytes    470,517 bytes   00:39:25.796    
7               0:43:00.578     0:18:55.134     20,278 kbps     51,628 kbps     00:55:10.640    35,078 kbps     00:48:52.829    32,060 kbps     00:48:52.863    84,577 bytes    559,503 bytes   00:58:06.416    
8               1:01:55.712     0:01:22.081     21,517 kbps     37,496 kbps     01:02:19.802    36,020 kbps     01:02:18.134    34,445 kbps     01:02:13.596    89,782 bytes    399,929 bytes   01:02:10.393    

STREAM DIAGNOSTICS:

File            PID             Type            Codec           Language                Seconds                 Bitrate                 Bytes           Packets         
----            ---             ----            -----           --------                --------------          --------------          -------------   -----           
00000.M2TS      4113 (0x1011)   0x1B            AVC                                     3797.727                20,141                  9,561,476,873   52,087,984      
00000.M2TS      4352 (0x1100)   0x81            AC3             eng (English)           3797.727                640                     303,825,920     1,780,230       
00000.M2TS      4353 (0x1101)   0x80            LPCM            eng (English)           3797.727                4,614                   2,190,568,156   12,152,944      
00000.M2TS      4354 (0x1102)   0x81            AC3             eng (English)           3797.727                192                     91,147,776      593,410         
00000.M2TS      4608 (0x1200)   0x90            PGS             eng (English)           3797.727                20                      9,478,885       55,035
<---- END FORUMS PASTE ---->

QUICK SUMMARY:

Disc Title: MASTERS_OF_HORROR
Disc Size: 49,705,164,706 bytes
Protection: AACS
BD-Java: No
Playlist: 00000.MPLS
Size: 12,824,997,888 bytes
Length: 1:03:17
Total Bitrate: 27.02 Mbps
Video: MPEG-4 AVC Video / 20141 kbps / 1080i / 29.970 fps / 16:9 / High Profile 4.1
Audio: English / LPCM Audio / 5.1 / 48 kHz / 4608 kbps / 16-bit
Audio: English / Dolby Digital Audio / 5.1 / 48 kHz / 640 kbps
Audio: English / Dolby Digital Audio / 2.0 / 48 kHz / 192 kbps
Subtitle: English / 19.967 kbps

"Haeckel's Tale"

<--- BEGIN FORUMS PASTE --->
Code:
                                                                                                                Total   Video                                             
Title                                                           Codec   Length  Movie Size      Disc Size       Bitrate Bitrate Main Audio Track                          Secondary Audio Track
-----                                                           ------  ------- --------------  --------------  ------- ------- ------------------                        ---------------------
00001.MPLS                                                      AVC     0:59:27 12,242,896,896  49,705,164,706  27.45   20.55   LPCM 5.1 4608Kbps (48kHz/16-bit)          DD AC3 5.1 640Kbps
Code:
DISC INFO:

Disc Title:     MASTERS_OF_HORROR
Disc Size:      49,705,164,706 bytes
Protection:     AACS
BD-Java:        No
BDInfo:         0.5.2

PLAYLIST REPORT:

Name:                   00001.MPLS
Size:                   12,242,896,896 bytes
Length:                 0:59:27 (h:m:s)
Total Bitrate:          27.45 Mbps
Description:            

VIDEO:

Codec                   Bitrate             Description     
-----                   -------             -----------     
MPEG-4 AVC Video        20551 kbps          1080i / 29.970 fps / 16:9 / High Profile 4.1

AUDIO:

Codec                           Language        Bitrate         Description     
-----                           --------        -------         -----------     
LPCM Audio                      English         4608 kbps       5.1 / 48 kHz / 4608 kbps / 16-bit
Dolby Digital Audio             English         640 kbps        5.1 / 48 kHz / 640 kbps
Dolby Digital Audio             English         192 kbps        2.0 / 48 kHz / 192 kbps

SUBTITLES:

Codec                           Language        Bitrate         Description     
-----                           --------        -------         -----------     
Presentation Graphics           English         29.827 kbps                     

FILES:

Name            Time In         Length          Size            Total Bitrate   
----            -------         ------          ----            -------------   
00001.M2TS      0:00:00.000     0:59:27.530     12,242,896,896  27,454          

CHAPTERS:

Number          Time In         Length          Avg Video Rate  Max 1-Sec Rate  Max 1-Sec Time  Max 5-Sec Rate  Max 5-Sec Time  Max 10Sec Rate  Max 10Sec Time  Avg Frame Size  Max Frame Size  Max Frame Time  
------          -------         ------          --------------  --------------  --------------  --------------  --------------  --------------  --------------  --------------  --------------  --------------  
1               0:00:00.000     0:01:15.708     30,437 kbps     42,532 kbps     00:00:06.673    34,991 kbps     00:00:06.673    33,926 kbps     00:00:06.673    126,892 bytes   441,401 bytes   00:01:02.962    
2               0:01:15.708     0:07:10.229     21,655 kbps     47,325 kbps     00:07:21.073    36,134 kbps     00:06:35.228    34,555 kbps     00:06:35.261    90,321 bytes    470,003 bytes   00:02:10.497    
3               0:08:25.938     0:05:06.839     20,832 kbps     41,317 kbps     00:09:09.615    30,720 kbps     00:09:42.214    27,881 kbps     00:09:42.615    86,886 bytes    487,069 bytes   00:09:45.818    
4               0:13:32.778     0:07:24.076     19,554 kbps     36,326 kbps     00:16:35.828    28,271 kbps     00:16:12.304    26,833 kbps     00:13:38.617    81,556 bytes    453,184 bytes   00:15:15.814    
5               0:20:56.855     0:14:08.714     20,346 kbps     40,939 kbps     00:27:00.385    33,720 kbps     00:22:30.716    33,115 kbps     00:22:26.445    84,858 bytes    477,224 bytes   00:23:31.643    
6               0:35:05.570     0:14:23.696     19,670 kbps     39,161 kbps     00:35:05.970    27,916 kbps     00:49:20.090    26,060 kbps     00:41:41.165    82,040 bytes    472,405 bytes   00:35:06.337    
7               0:49:29.266     0:08:33.179     21,418 kbps     44,343 kbps     00:49:30.300    36,940 kbps     00:54:37.641    33,615 kbps     00:54:37.173    89,332 bytes    509,174 bytes   00:49:30.367    
8               0:58:02.445     0:01:25.085     16,114 kbps     26,807 kbps     00:58:32.609    23,773 kbps     00:58:29.272    23,179 kbps     00:58:24.067    67,235 bytes    303,965 bytes   00:58:23.199    

STREAM DIAGNOSTICS:

File            PID             Type            Codec           Language                Seconds                 Bitrate                 Bytes           Packets         
----            ---             ----            -----           --------                --------------          --------------          -------------   -----           
00001.M2TS      4113 (0x1011)   0x1B            AVC                                     3567.464                20,551                  9,164,446,157   49,922,743      
00001.M2TS      4352 (0x1100)   0x81            AC3             eng (English)           3567.464                640                     285,404,160     1,672,290       
00001.M2TS      4353 (0x1101)   0x80            LPCM            eng (English)           3567.464                4,614                   2,057,754,188   11,416,112      
00001.M2TS      4354 (0x1102)   0x81            AC3             eng (English)           3567.464                192                     85,621,248      557,430         
00001.M2TS      4608 (0x1200)   0x90            PGS             eng (English)           3567.464                30                      13,301,002      76,969
<---- END FORUMS PASTE ---->

QUICK SUMMARY:

Disc Title: MASTERS_OF_HORROR
Disc Size: 49,705,164,706 bytes
Protection: AACS
BD-Java: No
Playlist: 00001.MPLS
Size: 12,242,896,896 bytes
Length: 0:59:27
Total Bitrate: 27.45 Mbps
Video: MPEG-4 AVC Video / 20551 kbps / 1080i / 29.970 fps / 16:9 / High Profile 4.1
Audio: English / LPCM Audio / 5.1 / 48 kHz / 4608 kbps / 16-bit
Audio: English / Dolby Digital Audio / 5.1 / 48 kHz / 640 kbps
Audio: English / Dolby Digital Audio / 2.0 / 48 kHz / 192 kbps
Subtitle: English / 29.827 kbps


"Homecoming"

<--- BEGIN FORUMS PASTE --->
Code:
                                                                                                                Total   Video                                             
Title                                                           Codec   Length  Movie Size      Disc Size       Bitrate Bitrate Main Audio Track                          Secondary Audio Track
-----                                                           ------  ------- --------------  --------------  ------- ------- ------------------                        ---------------------
00002.MPLS                                                      AVC     0:58:45 12,169,113,600  49,705,164,706  27.61   20.69   LPCM 5.1 4608Kbps (48kHz/16-bit)          DD AC3 5.1 640Kbps
Code:
DISC INFO:

Disc Title:     MASTERS_OF_HORROR
Disc Size:      49,705,164,706 bytes
Protection:     AACS
BD-Java:        No
BDInfo:         0.5.2

PLAYLIST REPORT:

Name:                   00002.MPLS
Size:                   12,169,113,600 bytes
Length:                 0:58:45 (h:m:s)
Total Bitrate:          27.61 Mbps
Description:            

VIDEO:

Codec                   Bitrate             Description     
-----                   -------             -----------     
MPEG-4 AVC Video        20691 kbps          1080i / 29.970 fps / 16:9 / High Profile 4.1

AUDIO:

Codec                           Language        Bitrate         Description     
-----                           --------        -------         -----------     
LPCM Audio                      English         4608 kbps       5.1 / 48 kHz / 4608 kbps / 16-bit
Dolby Digital Audio             English         640 kbps        5.1 / 48 kHz / 640 kbps
Dolby Digital Audio             English         192 kbps        2.0 / 48 kHz / 192 kbps

SUBTITLES:

Codec                           Language        Bitrate         Description     
-----                           --------        -------         -----------     
Presentation Graphics           English         41.994 kbps                     

FILES:

Name            Time In         Length          Size            Total Bitrate   
----            -------         ------          ----            -------------   
00002.M2TS      0:00:00.000     0:58:45.522     12,169,113,600  27,614          

CHAPTERS:

Number          Time In         Length          Avg Video Rate  Max 1-Sec Rate  Max 1-Sec Time  Max 5-Sec Rate  Max 5-Sec Time  Max 10Sec Rate  Max 10Sec Time  Avg Frame Size  Max Frame Size  Max Frame Time  
------          -------         ------          --------------  --------------  --------------  --------------  --------------  --------------  --------------  --------------  --------------  --------------  
1               0:00:00.000     0:01:15.208     31,584 kbps     42,734 kbps     00:00:33.666    35,268 kbps     00:00:29.662    33,651 kbps     00:00:24.591    131,674 bytes   471,153 bytes   00:00:34.300    
2               0:01:15.208     0:04:42.649     20,691 kbps     40,962 kbps     00:01:39.732    34,169 kbps     00:01:36.062    33,195 kbps     00:01:31.991    86,297 bytes    433,598 bytes   00:01:36.296    
3               0:05:57.857     0:13:58.671     20,393 kbps     33,372 kbps     00:17:39.792    28,938 kbps     00:17:08.494    25,978 kbps     00:10:02.568    85,055 bytes    400,289 bytes   00:19:56.528    
4               0:19:56.528     0:14:28.534     20,063 kbps     34,220 kbps     00:19:56.528    27,765 kbps     00:19:56.528    24,980 kbps     00:33:48.760    83,680 bytes    509,532 bytes   00:21:47.839    
5               0:34:25.063     0:09:18.391     20,829 kbps     44,862 kbps     00:37:11.729    34,539 kbps     00:37:11.729    31,753 kbps     00:38:55.966    86,874 bytes    467,979 bytes   00:37:11.829    
6               0:43:43.454     0:09:27.600     20,923 kbps     39,251 kbps     00:50:36.032    35,673 kbps     00:50:43.340    35,524 kbps     00:50:40.737    87,265 bytes    497,624 bytes   00:46:36.226    
7               0:53:11.054     0:04:10.216     19,465 kbps     38,516 kbps     00:56:59.482    33,608 kbps     00:56:56.212    28,999 kbps     00:56:51.207    81,186 bytes    353,627 bytes   00:55:17.747    
8               0:57:21.271     0:01:24.250     21,582 kbps     34,923 kbps     00:57:22.038    30,076 kbps     00:57:44.928    29,065 kbps     00:57:43.326    90,051 bytes    408,924 bytes   00:57:22.739    

STREAM DIAGNOSTICS:

File            PID             Type            Codec           Language                Seconds                 Bitrate                 Bytes           Packets         
----            ---             ----            -----           --------                --------------          --------------          -------------   -----           
00002.M2TS      4113 (0x1011)   0x1B            AVC                                     3525.455                20,692                  9,118,409,420   49,671,325      
00002.M2TS      4352 (0x1100)   0x81            AC3             eng (English)           3525.455                640                     282,042,880     1,652,595       
00002.M2TS      4353 (0x1101)   0x80            LPCM            eng (English)           3525.455                4,614                   2,033,522,820   11,281,680      
00002.M2TS      4354 (0x1102)   0x81            AC3             eng (English)           3525.455                192                     84,612,864      550,865         
00002.M2TS      4608 (0x1200)   0x90            PGS             eng (English)           3525.455                42                      18,506,510      106,184
<---- END FORUMS PASTE ---->

QUICK SUMMARY:

Disc Title: MASTERS_OF_HORROR
Disc Size: 49,705,164,706 bytes
Protection: AACS
BD-Java: No
Playlist: 00002.MPLS
Size: 12,169,113,600 bytes
Length: 0:58:45
Total Bitrate: 27.61 Mbps
Video: MPEG-4 AVC Video / 20691 kbps / 1080i / 29.970 fps / 16:9 / High Profile 4.1
Audio: English / LPCM Audio / 5.1 / 48 kHz / 4608 kbps / 16-bit
Audio: English / Dolby Digital Audio / 5.1 / 48 kHz / 640 kbps
Audio: English / Dolby Digital Audio / 2.0 / 48 kHz / 192 kbps
Subtitle: English / 41.994 kbps


"Chocolate"

<--- BEGIN FORUMS PASTE --->
Code:
                                                                                                                Total   Video                                             
Title                                                           Codec   Length  Movie Size      Disc Size       Bitrate Bitrate Main Audio Track                          Secondary Audio Track
-----                                                           ------  ------- --------------  --------------  ------- ------- ------------------                        ---------------------
00010.MPLS                                                      AVC     1:00:02 11,891,392,512  49,705,164,706  26.41   19.55   LPCM 5.1 4608Kbps (48kHz/16-bit)          DD AC3 5.1 640Kbps
Code:
DISC INFO:

Disc Title:     MASTERS_OF_HORROR
Disc Size:      49,705,164,706 bytes
Protection:     AACS
BD-Java:        No
BDInfo:         0.5.2

PLAYLIST REPORT:

Name:                   00010.MPLS
Size:                   11,891,392,512 bytes
Length:                 1:00:02 (h:m:s)
Total Bitrate:          26.41 Mbps
Description:            

VIDEO:

Codec                   Bitrate             Description     
-----                   -------             -----------     
MPEG-4 AVC Video        19555 kbps          1080i / 29.970 fps / 16:9 / High Profile 4.1

AUDIO:

Codec                           Language        Bitrate         Description     
-----                           --------        -------         -----------     
LPCM Audio                      English         4608 kbps       5.1 / 48 kHz / 4608 kbps / 16-bit
Dolby Digital Audio             English         640 kbps        5.1 / 48 kHz / 640 kbps
Dolby Digital Audio             English         192 kbps        2.0 / 48 kHz / 192 kbps

SUBTITLES:

Codec                           Language        Bitrate         Description     
-----                           --------        -------         -----------     
Presentation Graphics           English         22.044 kbps                     

FILES:

Name            Time In         Length          Size            Total Bitrate   
----            -------         ------          ----            -------------   
00010.M2TS      0:00:00.000     1:00:02.599     11,891,392,512  26,406          

CHAPTERS:

Number          Time In         Length          Avg Video Rate  Max 1-Sec Rate  Max 1-Sec Time  Max 5-Sec Rate  Max 5-Sec Time  Max 10Sec Rate  Max 10Sec Time  Avg Frame Size  Max Frame Size  Max Frame Time  
------          -------         ------          --------------  --------------  --------------  --------------  --------------  --------------  --------------  --------------  --------------  --------------  
1               0:00:00.000     0:01:18.078     30,155 kbps     42,500 kbps     00:00:33.633    35,053 kbps     00:00:29.662    33,642 kbps     00:00:24.591    125,716 bytes   448,924 bytes   00:01:12.272    
2               0:01:18.078     0:06:20.747     19,020 kbps     42,529 kbps     00:05:08.174    32,975 kbps     00:05:06.673    28,982 kbps     00:05:06.739    79,328 bytes    447,460 bytes   00:05:07.173    
3               0:07:38.825     0:09:26.399     20,551 kbps     45,206 kbps     00:09:22.728    34,364 kbps     00:07:49.502    32,755 kbps     00:07:44.931    85,715 bytes    485,585 bytes   00:13:29.175    
4               0:17:05.224     0:11:47.373     20,307 kbps     30,466 kbps     00:17:06.925    27,318 kbps     00:17:07.159    26,150 kbps     00:17:06.025    84,699 bytes    390,138 bytes   00:19:02.574    
5               0:28:52.597     0:08:55.535     19,404 kbps     41,294 kbps     00:31:47.772    33,653 kbps     00:31:53.611    31,721 kbps     00:31:52.610    80,930 bytes    419,726 bytes   00:32:02.120    
6               0:37:48.132     0:09:05.711     18,928 kbps     33,640 kbps     00:38:20.765    29,497 kbps     00:38:01.779    28,902 kbps     00:38:01.779    78,944 bytes    418,680 bytes   00:38:01.879    
7               0:46:53.844     0:11:42.668     17,870 kbps     32,487 kbps     00:57:55.205    24,353 kbps     00:46:56.880    22,216 kbps     00:46:53.844    74,534 bytes    446,716 bytes   00:57:55.271    
8               0:58:36.513     0:01:26.086     18,229 kbps     24,792 kbps     00:59:03.239    23,366 kbps     00:59:01.905    23,009 kbps     00:59:03.239    76,060 bytes    273,063 bytes   00:59:20.657    

STREAM DIAGNOSTICS:

File            PID             Type            Codec           Language                Seconds                 Bitrate                 Bytes           Packets         
----            ---             ----            -----           --------                --------------          --------------          -------------   -----           
00010.M2TS      4113 (0x1011)   0x1B            AVC                                     3602.532                19,555                  8,805,972,837   47,976,037      
00010.M2TS      4352 (0x1100)   0x81            AC3             eng (English)           3602.532                640                     288,209,920     1,688,730       
00010.M2TS      4353 (0x1101)   0x80            LPCM            eng (English)           3602.532                4,614                   2,077,979,680   11,528,320      
00010.M2TS      4354 (0x1102)   0x81            AC3             eng (English)           3602.532                192                     86,462,976      562,910         
00010.M2TS      4608 (0x1200)   0x90            PGS             eng (English)           3602.532                22                      9,927,016       57,609
<---- END FORUMS PASTE ---->

QUICK SUMMARY:

Disc Title: MASTERS_OF_HORROR
Disc Size: 49,705,164,706 bytes
Protection: AACS
BD-Java: No
Playlist: 00010.MPLS
Size: 11,891,392,512 bytes
Length: 1:00:02
Total Bitrate: 26.41 Mbps
Video: MPEG-4 AVC Video / 19555 kbps / 1080i / 29.970 fps / 16:9 / High Profile 4.1
Audio: English / LPCM Audio / 5.1 / 48 kHz / 4608 kbps / 16-bit
Audio: English / Dolby Digital Audio / 5.1 / 48 kHz / 640 kbps
Audio: English / Dolby Digital Audio / 2.0 / 48 kHz / 192 kbps
Subtitle: English / 22.044 kbps

Last edited by equivalent; 06-12-2009 at 06:29 PM.
  Reply With Quote
Old 06-10-2009, 09:32 PM   #182
Coqui2k Coqui2k is offline
Expert Member
 
Coqui2k's Avatar
 
Apr 2009
Camp Crystal Lake
602
6
1
123
Default

Confused
  Reply With Quote
Old 06-11-2009, 03:32 PM   #183
4K2K 4K2K is offline
Special Member
 
Feb 2008
Region B
Default

I don't have BDInfo or the following discs,

on the top of the thread it says "All titles are 1080p23.976 unless otherwise indicated".

The "Nine Inch Nails Live: Beside You in Time" BD doesn't have any fps listed but the production supervisor of that disc says "NIN concert is shot in 1080/30 fps progressive video. However the Blu-ray spec supports only 1080i/60, so in order to be 'spec legal' the video is encoded as a 1080i/60 stream".

"(DE) Over Her Dead Body (2008)" is listed in the thread as 1080p25. 1080p25 is not supported by Blu-ray. Should it be 1080i/50 or 1080p24??

Last edited by 4K2K; 06-11-2009 at 03:38 PM.
  Reply With Quote
Old 06-12-2009, 02:46 AM   #184
benes benes is offline
Member
 
Nov 2006
Exclamation Announcement

.

Last edited by benes; 10-12-2016 at 07:12 PM.
  Reply With Quote
Old 06-12-2009, 03:27 AM   #185
benes benes is offline
Member
 
Nov 2006
Default Last Part Of The List

.

Last edited by benes; 10-12-2016 at 07:12 PM.
  Reply With Quote
Old 06-12-2009, 09:13 AM   #186
equivalent equivalent is offline
Junior Member
 
Feb 2009
1
Default

That's more than understandable, Benes! You've put a lot of work in to create a formidable list you can be proud of, great work!

All the best,


James
  Reply With Quote
Old 06-15-2009, 03:35 PM   #187
Cinema Squid Cinema Squid is offline
Blu-ray Legend
 
Mar 2008
Austin, TX
Default

Quote:
Originally Posted by equivalent View Post
That's more than understandable, Benes! You've put a lot of work in to create a formidable list you can be proud of, great work!
Hear, hear - thanks so much for the awesome work, benes!

I will be maintaining the new iteration of this thread at AVS and I plan to mirror it here in a new thread as well, if there is no objection. Any suggestions for improvements are welcome, but I think the current format works well and I don't currently have any plans to change it.
  Reply With Quote
Old 06-16-2009, 08:08 AM   #188
equivalent equivalent is offline
Junior Member
 
Feb 2009
1
Default

No objection at all - thanks very much for taking the job on, Cinema Squid, and thanks again for the excellent BDInfo!
  Reply With Quote
Old 08-15-2009, 08:43 PM   #189
stargazeruk stargazeruk is offline
Special Member
 
Jul 2008
524
Default

Passengers UK Lionsgate BD 25 release

Code:
                                                                                                                Total   Video                                             
Title                                                           Codec   Length  Movie Size      Disc Size       Bitrate Bitrate Main Audio Track                          Secondary Audio Track
-----                                                           ------  ------- --------------  --------------  ------- ------- ------------------                        ---------------------
00000.MPLS                                                      AVC     1:32:37 16,735,023,552  22,041,130,972  24.09   19.49   DTS-HD Master 5.1 1582Kbps (48kHz/16-bit) LPCM 2.0 1536Kbps (48kHz/16-bit)
Code:
DISC INFO:

Disc Title:     PASSENGERS
Disc Size:      22,041,130,972 bytes
Protection:     AACS
BD-Java:        No
BDInfo:         0.5.2

PLAYLIST REPORT:

Name:                   00000.MPLS
Size:                   16,735,023,552 bytes
Length:                 1:32:37 (h:m:s)
Total Bitrate:          24.09 Mbps
Description:            

VIDEO:

Codec                   Bitrate             Description     
-----                   -------             -----------     
MPEG-4 AVC Video        19485 kbps          1080p / 23.976 fps / 16:9 / High Profile 4.1

AUDIO:

Codec                           Language        Bitrate         Description     
-----                           --------        -------         -----------     
DTS-HD Master Audio             English         1582 kbps       5.1 / 48 kHz / 1582 kbps / 16-bit (DTS Core: 5.1 / 48 kHz / 768 kbps / 16-bit)
LPCM Audio                      English         1536 kbps       2.0 / 48 kHz / 1536 kbps / 16-bit

SUBTITLES:

Codec                           Language        Bitrate         Description     
-----                           --------        -------         -----------     
Presentation Graphics           English         34.438 kbps                     

FILES:

Name            Time In         Length          Size            Total Bitrate   
----            -------         ------          ----            -------------   
00000.M2TS      0:00:00.000     1:32:37.093     16,735,023,552  24,092          

CHAPTERS:

Number          Time In         Length          Avg Video Rate  Max 1-Sec Rate  Max 1-Sec Time  Max 5-Sec Rate  Max 5-Sec Time  Max 10Sec Rate  Max 10Sec Time  Avg Frame Size  Max Frame Size  Max Frame Time  
------          -------         ------          --------------  --------------  --------------  --------------  --------------  --------------  --------------  --------------  --------------  --------------  
1               0:00:00.000     0:07:54.307     18,445 kbps     28,311 kbps     00:07:52.805    25,621 kbps     00:05:21.863    25,092 kbps     00:05:16.774    96,145 bytes    272,891 bytes   00:00:17.976    
2               0:07:54.307     0:09:47.753     21,350 kbps     32,142 kbps     00:17:05.107    26,354 kbps     00:08:34.514    25,369 kbps     00:08:29.509    111,310 bytes   284,369 bytes   00:10:51.400    
3               0:17:42.060     0:07:22.442     19,278 kbps     30,827 kbps     00:22:06.742    24,668 kbps     00:18:22.851    24,100 kbps     00:18:21.975    100,508 bytes   286,813 bytes   00:18:12.758    
4               0:25:04.502     0:08:18.331     22,072 kbps     32,030 kbps     00:29:37.650    28,032 kbps     00:31:38.855    26,127 kbps     00:28:13.316    115,071 bytes   285,218 bytes   00:31:22.797    
5               0:33:22.834     0:04:23.846     19,631 kbps     28,556 kbps     00:37:19.111    24,020 kbps     00:35:43.808    23,149 kbps     00:37:18.069    102,349 bytes   264,384 bytes   00:33:36.639    
6               0:37:46.681     0:05:39.922     20,561 kbps     28,683 kbps     00:40:29.218    26,876 kbps     00:40:27.174    25,176 kbps     00:40:26.507    107,198 bytes   281,938 bytes   00:43:24.643    
7               0:43:26.604     0:05:13.313     18,674 kbps     34,778 kbps     00:46:58.357    29,255 kbps     00:47:15.582    25,385 kbps     00:47:13.580    97,360 bytes    299,700 bytes   00:47:27.386    
8               0:48:39.917     0:06:15.208     21,315 kbps     28,809 kbps     00:50:48.170    26,044 kbps     00:50:33.989    25,080 kbps     00:54:28.515    111,125 bytes   272,237 bytes   00:52:19.845    
9               0:54:55.125     0:08:21.167     19,583 kbps     32,404 kbps     01:03:05.490    26,104 kbps     01:03:01.778    24,874 kbps     00:56:55.328    102,094 bytes   312,439 bytes   01:02:21.446    
10              1:03:16.292     0:14:47.386     19,767 kbps     34,638 kbps     01:04:21.190    26,445 kbps     01:11:16.146    25,969 kbps     01:11:11.517    103,054 bytes   296,658 bytes   01:10:53.916    
11              1:18:03.679     0:07:03.256     22,831 kbps     36,951 kbps     01:23:24.833    34,184 kbps     01:23:23.748    31,394 kbps     01:23:24.791    119,032 bytes   305,412 bytes   01:20:45.549    
12              1:25:06.935     0:07:30.158     9,819 kbps      26,061 kbps     01:27:20.818    24,723 kbps     01:25:15.151    24,494 kbps     01:25:13.650    51,200 bytes    303,806 bytes   01:27:02.383    

STREAM DIAGNOSTICS:

File            PID             Type            Codec           Language                Seconds                 Bitrate                 Bytes           Packets         
----            ---             ----            -----           --------                --------------          --------------          -------------   -----           
00000.M2TS      4113 (0x1011)   0x1B            AVC                                     5557.010                19,486                  13,535,146,835  73,639,803      
00000.M2TS      4352 (0x1100)   0x86            DTS-HD MA       eng (English)           5557.010                1,582                   1,098,828,100   6,530,353       
00000.M2TS      4353 (0x1101)   0x80            LPCM            eng (English)           5557.010                1,542                   1,071,407,916   6,668,514       
00000.M2TS      4608 (0x1200)   0x90            PGS             eng (English)           5557.010                34                      23,922,055      136,749
QUICK SUMMARY:

Disc Title: PASSENGERS
Disc Size: 22,041,130,972 bytes
Protection: AACS
BD-Java: No
Playlist: 00000.MPLS
Size: 16,735,023,552 bytes
Length: 1:32:37
Total Bitrate: 24.09 Mbps
Video: MPEG-4 AVC Video / 19485 kbps / 1080p / 23.976 fps / 16:9 / High Profile 4.1
Audio: English / DTS-HD Master Audio / 5.1 / 48 kHz / 1582 kbps / 16-bit (DTS Core: 5.1 / 48 kHz / 768 kbps / 16-bit)
Audio: English / LPCM Audio / 2.0 / 48 kHz / 1536 kbps / 16-bit
Subtitle: English / 34.438 kbps
  Reply With Quote
Old 09-13-2009, 10:34 PM   #190
stargazeruk stargazeruk is offline
Special Member
 
Jul 2008
524
Default

Angels And Deamons UK blu-ray release:

Disc Title: ANGELS_AND_DEMONS
Disc Size: 49,834,668,337 bytes
Protection: AACS
BD-Java: Yes
BDInfo: 0.5.2

Notes:

BDINFO HOME AND REPORTS SUBMISSION:
Cinema Squid
http://www.cinemasquid.com/Tools.aspx


INCLUDES FORUMS REPORT FOR:
Unofficial Blu-ray Audio and Video Specifications Thread
http://www.avsforum.com/avs-vb/showthread.php?t=760714
https://forum.blu-ray.com/showthread.php?t=3338


********************
PLAYLIST: 00002.MPLS
********************

<--- BEGIN FORUMS PASTE --->
Code:
                                                                                                                Total   Video                                             
Title                                                           Codec   Length  Movie Size      Disc Size       Bitrate Bitrate Main Audio Track                          Secondary Audio Track
-----                                                           ------  ------- --------------  --------------  ------- ------- ------------------                        ---------------------
00002.MPLS                                                      AVC     2:26:15 33,988,196,352  49,834,668,337  30.98   24.14   DTS-HD Master 5.1 3774Kbps (48kHz/24-bit) DD AC3 5.1 640Kbps
Code:
DISC INFO:

Disc Title:     ANGELS_AND_DEMONS
Disc Size:      49,834,668,337 bytes
Protection:     AACS
BD-Java:        Yes
BDInfo:         0.5.2

PLAYLIST REPORT:

Name:                   00002.MPLS
Size:                   33,988,196,352 bytes
Length:                 2:26:15 (h:m:s)
Total Bitrate:          30.98 Mbps
Description:            

VIDEO:

Codec                   Bitrate             Description     
-----                   -------             -----------     
MPEG-4 AVC Video        24144 kbps          1080p / 23.976 fps / 16:9 / High Profile 4.1

AUDIO:

Codec                           Language        Bitrate         Description     
-----                           --------        -------         -----------     
DTS-HD Master Audio             English         3774 kbps       5.1 / 48 kHz / 3774 kbps / 24-bit (DTS Core: 5.1 / 48 kHz / 1509 kbps / 24-bit)
Dolby Digital Audio             English         640 kbps        5.1 / 48 kHz / 640 kbps
Dolby Digital Audio             English         640 kbps        5.1 / 48 kHz / 640 kbps

SUBTITLES:

Codec                           Language        Bitrate         Description     
-----                           --------        -------         -----------     
Presentation Graphics           English         27.660 kbps                     
Presentation Graphics           English         21.148 kbps                     
Presentation Graphics           English         0.002 kbps                      
Presentation Graphics           English         0.002 kbps                      
Presentation Graphics           English         0.002 kbps                      
Presentation Graphics           English         0.002 kbps                      
Presentation Graphics           English         0.002 kbps                      
Presentation Graphics           English         0.002 kbps                      
Presentation Graphics           English         0.002 kbps                      
Presentation Graphics           English         0.002 kbps                      
Presentation Graphics           English         0.002 kbps                      
Presentation Graphics           English         0.002 kbps                      
Presentation Graphics           English         0.002 kbps                      
Presentation Graphics           English         0.002 kbps                      
Presentation Graphics           English         0.002 kbps                      
Presentation Graphics           English         0.002 kbps                      
Presentation Graphics           English         0.002 kbps                      
Presentation Graphics           English         0.002 kbps                      
Presentation Graphics           English         0.002 kbps                      
Presentation Graphics           English         0.002 kbps                      
Presentation Graphics           English         0.002 kbps                      
Presentation Graphics           Hindi           25.524 kbps
<---- END FORUMS PASTE ---->

QUICK SUMMARY:

Disc Title: ANGELS_AND_DEMONS
Disc Size: 49,834,668,337 bytes
Protection: AACS
BD-Java: Yes
Playlist: 00002.MPLS
Size: 33,988,196,352 bytes
Length: 2:26:15
Total Bitrate: 30.98 Mbps
Video: MPEG-4 AVC Video / 24144 kbps / 1080p / 23.976 fps / 16:9 / High Profile 4.1
Audio: English / DTS-HD Master Audio / 5.1 / 48 kHz / 3774 kbps / 24-bit (DTS Core: 5.1 / 48 kHz / 1509 kbps / 24-bit)
Audio: English / Dolby Digital Audio / 5.1 / 48 kHz / 640 kbps
Audio: English / Dolby Digital Audio / 5.1 / 48 kHz / 640 kbps
Subtitle: English / 27.660 kbps
Subtitle: English / 21.148 kbps
Subtitle: English / 0.002 kbps
Subtitle: English / 0.002 kbps
Subtitle: English / 0.002 kbps
Subtitle: English / 0.002 kbps
Subtitle: English / 0.002 kbps
Subtitle: English / 0.002 kbps
Subtitle: English / 0.002 kbps
Subtitle: English / 0.002 kbps
Subtitle: English / 0.002 kbps
Subtitle: English / 0.002 kbps
Subtitle: English / 0.002 kbps
Subtitle: English / 0.002 kbps
Subtitle: English / 0.002 kbps
Subtitle: English / 0.002 kbps
Subtitle: English / 0.002 kbps
Subtitle: English / 0.002 kbps
Subtitle: English / 0.002 kbps
Subtitle: English / 0.002 kbps
Subtitle: English / 0.002 kbps
Subtitle: Hindi / 25.524 kbps
  Reply With Quote
Old 01-01-2010, 01:29 AM   #191
TauHeel05 TauHeel05 is offline
Power Member
 
TauHeel05's Avatar
 
Mar 2007
North Carolina
1039
5661
1
21
Default

Thanks OP for the lists!
  Reply With Quote
Old 01-06-2011, 09:18 PM   #192
kristoffer kristoffer is offline
Blu-ray Ninja
 
kristoffer's Avatar
 
May 2010
Denmark
Default

Which BD has the highest Bitrate ever?
  Reply With Quote
Old 09-16-2011, 01:32 AM   #193
pedromvu pedromvu is offline
Blu-ray Guru
 
pedromvu's Avatar
 
Nov 2010
Mexico
45
1027
1
1
3
1
48
Default

Taking into account that blu-rays have 6 times the resolution of dvd's, shouldn't blu rays have at least 6 times the bitrate of dvd's?

because the average dvd movie is at 6 mbits/s , and i see here that some blu rays have barely the double of that with 6 times the size , that seems like it is not enough.

or does the compression format for blu-rays is what makes them look better?

if so, then does that mean that compressing a movie with a VC-1 encode of 2 mbits/s (at 480p) could look the same as a dvd with the older compression at 6 mbits/s?
  Reply With Quote
Old 09-26-2013, 06:57 PM   #194
AngelGraves13 AngelGraves13 is offline
Senior Member
 
Feb 2011
North Hollywood, CA
440
2317
49
2
Default

Quote:
Originally Posted by pedromvu View Post
Taking into account that blu-rays have 6 times the resolution of dvd's, shouldn't blu rays have at least 6 times the bitrate of dvd's?

because the average dvd movie is at 6 mbits/s , and i see here that some blu rays have barely the double of that with 6 times the size , that seems like it is not enough.

or does the compression format for blu-rays is what makes them look better?

if so, then does that mean that compressing a movie with a VC-1 encode of 2 mbits/s (at 480p) could look the same as a dvd with the older compression at 6 mbits/s?
MPEG-4 AVC compresses somewhere around 40% better than MPEG-2, hence the lower bit rate.
  Reply With Quote
Old 06-14-2019, 09:29 AM   #195
bazeelus45
Guest
 
Default

good
  Reply With Quote
Old 08-06-2019, 07:12 PM   #196
Versatil Versatil is offline
Active Member
 
Versatil's Avatar
 
Apr 2008
Montreal
22
Default

Is there an updated version of this thread?
  Reply With Quote
Reply
Go Back   Blu-ray Forum > Movies > Blu-ray Movies - North America

Similar Threads
thread Forum Thread Starter Replies Last Post
Do Bitrates matter? Blu-ray Movies - North America nathan28 19 01-20-2009 03:40 PM
Question about bitrates and PQ Blu-ray Technology and Future Technology mthopper 11 01-12-2009 08:53 PM
Will WB re-release current Blu movies at higher bitrates? Blu-ray Technology and Future Technology UTVOL06 20 01-10-2008 09:28 PM
definitive proof that hd dvd bitrates are crippling blu-ray Blu-ray Movies - North America jorg 3 12-02-2007 01:40 AM
BitRates Blu-ray Movies - North America Robert Plant 0 07-19-2007 06:05 PM


Thread Tools
Display Modes

Posting Rules
You may not post new threads
You may not post replies
You may not post attachments
You may not edit your posts

BB code is On
Smilies are On
[IMG] code is On
HTML code is Off

Forum Jump


All times are GMT. The time now is 07:53 AM.