Best Anime Deals

Best Blu-ray Movie Deals, See All the Deals »
Top deals | Price drops  
 All countries United States United Kingdom Canada Germany France Spain Italy Japan
Sailor Moon Super S: Season 4 Part 1 (Blu-ray)
$42.37
 
Devilman Complete OVA Series (Blu-ray)
$18.19
10 hrs ago
JoJo's Bizarre Adventure (Blu-ray)
$43.96
 
My Hero Academia: Season Two Part Two (Blu-ray)
$37.99
15 hrs ago
Outlaw Star: Complete Series - Classic (Blu-ray)
$29.96
 
Angel Cop: Complete OVA Series (Blu-ray)
$20.00
11 hrs ago
Stellvia: The Complete Series (Blu-ray)
$30.29
 
Metropolis (Blu-ray)
$17.99
 
Seven Heavenly Virtues: Complete Collection (Blu-ray)
$17.19
 
Sailor Moon S: The Movie (Blu-ray)
$22.99
 
Patlabor the Mobile Police: Ultimate Collection (Blu-ray)
$74.29
 
SHIMONETA: A Boring World Where the Concept of Dirty Jokes Doesn’t Exist - The Complete Series - Essentials (Blu-ray)
$20.59
 
What's your next favorite movie?
Join our movie community to find out


Image from: Life of Pi (2012)

Go Back   Blu-ray Forum > Movies > Anime


Reply
 
Thread Tools Display Modes
Old 09-23-2018, 07:07 PM   #2381
NLScavenger NLScavenger is offline
Power Member
 
NLScavenger's Avatar
 
Dec 2013
Netherlands
346
9
Default

Quote:
Originally Posted by professorwho View Post
In regards to Fate Heaven's Feel:

mp3dom has assured me the Dynit release will be superior in both compression and banding;

Quote:
but not everything was fixed, because some scene with particles effects and similar would have required a frame-by-frame mask to cover the each particle. Something that would have required 1 day to mask one single frame... extremely expensive.
That's totally fine by me, and he compared it to the JP disc to make sure it looks right. Plus, timing is the same as the JP BD. I might pick it up, so when I do, maybe you could send me some subs?
Sure thing.
  Reply With Quote
Old Yesterday, 12:00 PM   #2382
Naiera Naiera is offline
Blu-ray Baron
 
Naiera's Avatar
 
Jun 2012
Denmark
9
20
Default Sound! Euphonium season 1 UK release

Stats from the first episode on the list in the spoiler. The disc totals under 35 GB. Why the hell wouldn't they use the extra 10 GB?



[Show spoiler]
Video
ID : 1
ID in the original source medium : 4113 (0x1011)
Format : AVC
Format/Info : Advanced Video Codec
Format profile : High@L4.1
Format settings : CABAC / 4 Ref Frames
Format settings, CABAC : Yes
Format settings, ReFrames : 4 frames
Format settings, GOP : M=3, N=24
Codec ID : V_MPEG4/ISO/AVC
Duration : 23mn 41s
Bit rate mode : Variable
Bit rate : 24.5 Mbps
Maximum bit rate : 35.0 Mbps
Width : 1 920 pixels
Height : 1 080 pixels
Display aspect ratio : 16:9
Frame rate mode : Constant
Frame rate : 23.976 (24000/1001) fps
Standard : NTSC
Color space : YUV
Chroma subsampling : 4:2:0
Bit depth : 8 bits
Scan type : Progressive
Bits/(Pixel*Frame) : 0.493
Stream size : 4.06 GiB (96%)
Language : English
Default : No
Forced : No
Color range : Limited
Color primaries : BT.709
Transfer characteristics : BT.709
Matrix coefficients : BT.709
Original source medium : Blu-ray

Audio
ID : 2
ID in the original source medium : 4352 (0x1100)
Format : DTS XLL
Format/Info : Digital Theater Systems
Commercial name : DTS-HD Master Audio
Codec ID : A_DTS
Duration : 23mn 41s
Bit rate mode : Variable
Bit rate : 1 035 Kbps
Channel(s) : 2 channels
Channel layout : L R
Sampling rate : 48.0 KHz
Frame rate : 93.750 fps (512 SPF)
Bit depth : 16 bits
Compression mode : Lossless
Stream size : 175 MiB (4%)
Title : Stereo
Language : Japanese
Default : Yes
Forced : No
Original source medium : Blu-ray
Attached Images
File Type: jpg sounddisc.jpg (92.5 KB, 70 views)
  Reply With Quote
Thanks given by:
Gouki (Yesterday), professorwho (Yesterday)
Old Yesterday, 12:04 PM   #2383
professorwho professorwho is online now
Blu-ray Guru
 
professorwho's Avatar
 
Apr 2017
Middle Earth
131
47
Default

Is it just Japanese audio? Or is there French subs as well?

If yes to the latter, it’s the French encoding branch- who isn’t the best.
Retro always wins!

おれは日本語を話します

List of anime with extended episodes on DVD/Blu-ray

Profile Picture: Yukinoshita Yukino (Yahari Ore no Seishun Rabukome wa Machigatteiru)
  Reply With Quote
Old Yesterday, 12:04 PM   #2384
Naiera Naiera is offline
Blu-ray Baron
 
Naiera's Avatar
 
Jun 2012
Denmark
9
20
Default

Yes, we knew it was done by the frogs.
  Reply With Quote
Thanks given by:
Gouki (Yesterday), professorwho (Yesterday)
Old Yesterday, 12:07 PM   #2385
professorwho professorwho is online now
Blu-ray Guru
 
professorwho's Avatar
 
Apr 2017
Middle Earth
131
47
Default

Yeah. Dumb move on their part.

They didn’t even have to use the 10 GB more. Even 5 or 6 extra could improve things in a big way.
Retro always wins!

おれは日本語を話します

List of anime with extended episodes on DVD/Blu-ray

Profile Picture: Yukinoshita Yukino (Yahari Ore no Seishun Rabukome wa Machigatteiru)
  Reply With Quote
Old Yesterday, 12:10 PM   #2386
Naiera Naiera is offline
Blu-ray Baron
 
Naiera's Avatar
 
Jun 2012
Denmark
9
20
Default

Tremendously bigly.

But they very likely just encode the way FUNi does (or did, until very recently); same settings for every show, no matter the disc size or episode count.
  Reply With Quote
Old Yesterday, 04:31 PM   #2387
Robbl Robbl is offline
Member
 
Jan 2018
Default

Dodged a bullet there. phew
  Reply With Quote
Old Yesterday, 04:49 PM   #2388
pikagreg pikagreg is offline
Blu-ray Guru
 
pikagreg's Avatar
 
Jun 2014
6
Default

At least the box looks nice and I don't have to give PonyCan USA money but that is a bummer
  Reply With Quote
Old Yesterday, 08:02 PM   #2389
Thedoctor2016 Thedoctor2016 is offline
Junior Member
 
Aug 2016
116
Default

If Al has a license in France and UK they use france to author its why I don't own Lupin IV, its obviously to save money like it made me laugh that the subs default to French when at MCM AL basically said it was the UK Fans who got the license back. Sound I only want to finally own for my KyoAni collection and S2 (Which I vastly prefer) has been screwed by PonyCan I do wonder what the PQ on that is like.
  Reply With Quote
Old Yesterday, 08:06 PM   #2390
professorwho professorwho is online now
Blu-ray Guru
 
professorwho's Avatar
 
Apr 2017
Middle Earth
131
47
Default

Quote:
Originally Posted by Thedoctor2016 View Post
S2 (Which I vastly prefer) has been screwed by PonyCan I do wonder what the PQ on that is like.
Justin Sevakis didn't do S2, so it's probably not that good. And the packaging is pathetic.
Retro always wins!

おれは日本語を話します

List of anime with extended episodes on DVD/Blu-ray

Profile Picture: Yukinoshita Yukino (Yahari Ore no Seishun Rabukome wa Machigatteiru)
  Reply With Quote
Old Yesterday, 08:10 PM   #2391
Thedoctor2016 Thedoctor2016 is offline
Junior Member
 
Aug 2016
116
Default

Quote:
Originally Posted by professorwho View Post
Justin Sevakis didn't do S2, so it's probably not that good. And the packaging is pathetic.
I was tempted that's how much I love S2 and not A3 packaging I was glad, then someone unboxed it yeah ill stick to AoA and AL for better packaging I just hope AL get S2 and the films.
  Reply With Quote
Reply
Go Back   Blu-ray Forum > Movies > Anime


Thread Tools
Display Modes

Posting Rules
You may not post new threads
You may not post replies
You may not post attachments
You may not edit your posts

BB code is On
Smilies are On
[IMG] code is On
HTML code is Off

Forum Jump


All times are GMT. The time now is 12:45 AM.