Best Blu-ray Movie Deals


Best Blu-ray Movie Deals, See All the Deals »
Top deals | New deals  
 All countries United States United Kingdom Canada Germany France Spain Italy Australia Japan
Dredd 4K (Blu-ray)
$9.99
3 hrs ago
Assault on Precinct 13 (Blu-ray)
$11.99
3 hrs ago
Now You See Me 2 4K (Blu-ray)
$9.99
5 hrs ago
Godzilla: The Showa-Era Films, 1954-1975 (Blu-ray)
$112.49
 
Ringu Collection (Blu-ray)
$49.99
 
Chernobyl (Blu-ray)
$24.99
 
Batman Beyond: The Complete Series (Blu-ray)
$69.99
 
3:10 to Yuma 4K (Blu-ray)
$9.99
5 hrs ago
Doctor Sleep 4K (Blu-ray)
$29.99
 
Farscape: The Complete Series (Blu-ray)
$59.99
 
Once Upon a Time in Hollywood 4K (Blu-ray)
$56.99
 
Mission: Impossible - 6-Movie Collection 4K (Blu-ray)
$50.39
 
What's your next favorite movie?
Join our movie community to find out


Image from: Life of Pi (2012)

Go Back   Blu-ray Forum > Audio > Music / Audiophiles > Blu-ray Music and High Quality Music


Reply
 
Thread Tools Display Modes
Old 01-19-2019, 11:30 PM   #1
McCrutchy McCrutchy is offline
Contributor
 
McCrutchy's Avatar
 
Dec 2008
East Coast, USA
2
360
3680
173
5
14
Default The Rolling Stones: Voodoo Lounge Uncut



Universal Music / Eagle Rock released The Rolling Stones: Voodoo Lounge Uncut last November.
  Reply With Quote
Old 01-19-2019, 11:32 PM   #2
McCrutchy McCrutchy is offline
Contributor
 
McCrutchy's Avatar
 
Dec 2008
East Coast, USA
2
360
3680
173
5
14
Default

BDInfo scan:

This is an expanded version of a 1994 concert, released initially on VHS and LD in 1995, and subsequently released on DVD in 1998. It also includes bonus tracks which are apparently taken from a souvenir video sold on this tour.

Code:
                                                                                                                Total   Video                                             
Title                                                           Codec   Length  Movie Size      Disc Size       Bitrate Bitrate Main Audio Track                          Secondary Audio Track
-----                                                           ------  ------- --------------  --------------  ------- ------- ------------------                        ---------------------
00002.MPLS                                                      AVC     2:29:48 39,437,549,568  45,699,086,382  35.10   29.00   LPCM 2.0 1536Kbps (48kHz/16-bit)          DTS-HD Master 5.1 2550Kbps (48kHz/16-bit)
Code:
DISC INFO:

Disc Title:     ERBRD5373
Disc Size:      45,699,086,382 bytes
Protection:     AACS
BD-Java:        No
BDInfo:         0.5.8

PLAYLIST REPORT:

Name:                   00002.MPLS
Length:                 2:29:48.012 (h:m:s.ms)
Size:                   39,437,549,568 bytes
Total Bitrate:          35.10 Mbps

VIDEO:

Codec                   Bitrate             Description     
-----                   -------             -----------     
MPEG-4 AVC Video        28997 kbps          1080i / 29.970 fps / 16:9 / High Profile 4.1

AUDIO:

Codec                           Language        Bitrate         Description     
-----                           --------        -------         -----------     
LPCM Audio                      English         1536 kbps       2.0 / 48 kHz / 1536 kbps / 16-bit
DTS-HD Master Audio             English         2550 kbps       5.1 / 48 kHz / 2550 kbps / 16-bit (DTS Core: 5.1 / 48 kHz / 1509 kbps / 16-bit)

FILES:

Name            Time In         Length          Size            Total Bitrate   
----            -------         ------          ----            -------------   
00002.M2TS      0:00:00.000     2:29:47.011     39,437,518,848  35,106          
00007.M2TS      2:29:47.011     0:00:01.000     30,720          246             

CHAPTERS:

Number          Time In         Length          Avg Video Rate  Max 1-Sec Rate  Max 1-Sec Time  Max 5-Sec Rate  Max 5-Sec Time  Max 10Sec Rate  Max 10Sec Time  Avg Frame Size  Max Frame Size  Max Frame Time  
------          -------         ------          --------------  --------------  --------------  --------------  --------------  --------------  --------------  --------------  --------------  --------------  
1               0:00:00.000     0:01:36.229     24,287 kbps     31,535 kbps     00:01:34.594    28,965 kbps     00:01:31.224    26,757 kbps     00:00:12.412    101,262 bytes   243,876 bytes   00:01:34.027    
2               0:01:36.229     0:04:19.425     25,090 kbps     40,542 kbps     00:03:57.570    37,254 kbps     00:03:53.566    35,629 kbps     00:03:51.030    104,646 bytes   273,900 bytes   00:03:57.370    
3               0:05:55.655     0:04:51.724     29,417 kbps     37,829 kbps     00:07:35.221    35,747 kbps     00:06:09.068    35,165 kbps     00:06:09.435    122,694 bytes   271,049 bytes   00:06:11.070    
4               0:10:47.380     0:03:55.935     30,310 kbps     42,818 kbps     00:11:22.815    37,622 kbps     00:11:22.381    35,399 kbps     00:11:17.777    126,420 bytes   244,672 bytes   00:11:26.285    
5               0:14:43.315     0:05:23.122     29,329 kbps     42,452 kbps     00:16:30.289    35,984 kbps     00:16:27.319    34,474 kbps     00:18:07.953    122,328 bytes   273,627 bytes   00:15:13.245    
6               0:20:06.438     0:04:57.597     30,053 kbps     40,793 kbps     00:20:31.163    33,999 kbps     00:23:30.976    33,506 kbps     00:23:30.409    125,345 bytes   252,757 bytes   00:20:51.250    
7               0:25:04.035     0:04:21.094     30,478 kbps     41,049 kbps     00:25:23.255    35,994 kbps     00:26:26.685    34,840 kbps     00:26:24.349    127,120 bytes   257,688 bytes   00:25:28.960    
8               0:29:25.130     0:06:59.285     29,541 kbps     42,955 kbps     00:30:09.140    35,032 kbps     00:29:50.889    33,344 kbps     00:35:19.750    123,212 bytes   244,753 bytes   00:31:01.226    
9               0:36:24.415     0:05:46.245     27,663 kbps     41,585 kbps     00:39:08.879    36,404 kbps     00:38:06.817    34,158 kbps     00:38:00.111    115,378 bytes   257,901 bytes   00:38:02.613    
10              0:42:10.661     0:04:11.618     25,355 kbps     37,405 kbps     00:44:22.693    34,560 kbps     00:44:20.290    32,717 kbps     00:44:20.491    105,751 bytes   254,774 bytes   00:43:59.903    
11              0:46:22.279     0:04:31.170     27,786 kbps     42,020 kbps     00:49:09.112    36,030 kbps     00:49:05.776    33,235 kbps     00:49:01.705    115,892 bytes   251,708 bytes   00:49:58.595    
12              0:50:53.450     0:05:41.574     24,875 kbps     42,379 kbps     00:56:07.831    33,416 kbps     00:53:25.969    31,437 kbps     00:53:22.566    103,748 bytes   262,788 bytes   00:53:28.438    
13              0:56:35.024     0:03:59.672     30,727 kbps     42,630 kbps     00:57:36.052    35,674 kbps     00:57:35.785    34,493 kbps     00:57:35.819    128,156 bytes   272,710 bytes   00:57:40.723    
14              1:00:34.697     0:04:38.244     29,564 kbps     39,313 kbps     01:01:04.127    35,716 kbps     01:03:11.821    34,644 kbps     01:03:11.821    123,308 bytes   255,524 bytes   01:03:13.523    
15              1:05:12.942     0:05:32.665     28,300 kbps     42,494 kbps     01:09:38.340    35,805 kbps     01:09:36.105    32,622 kbps     01:09:35.037    118,033 bytes   271,605 bytes   01:08:25.601    
16              1:10:45.608     0:04:44.984     30,622 kbps     39,592 kbps     01:11:27.116    37,078 kbps     01:11:11.867    36,023 kbps     01:11:10.432    127,720 bytes   255,052 bytes   01:11:14.003    
17              1:15:30.592     0:07:12.532     29,071 kbps     39,783 kbps     01:17:58.940    34,457 kbps     01:18:03.912    33,596 kbps     01:18:03.245    121,249 bytes   253,289 bytes   01:16:49.271    
18              1:22:43.124     0:13:37.049     27,932 kbps     42,577 kbps     01:24:45.647    34,933 kbps     01:30:11.272    34,091 kbps     01:27:37.952    116,498 bytes   269,185 bytes   01:28:21.996    
19              1:36:20.174     0:05:26.592     30,401 kbps     42,373 kbps     01:36:20.307    34,114 kbps     01:36:26.614    33,387 kbps     01:40:21.348    126,799 bytes   258,190 bytes   01:38:08.249    
20              1:41:46.767     0:04:08.881     31,568 kbps     38,824 kbps     01:41:51.004    34,263 kbps     01:42:51.865    33,955 kbps     01:44:16.883    131,667 bytes   251,239 bytes   01:42:17.331    
21              1:45:55.649     0:03:29.576     26,662 kbps     38,571 kbps     01:48:48.121    34,317 kbps     01:48:48.121    31,737 kbps     01:48:47.487    111,205 bytes   251,592 bytes   01:49:18.818    
22              1:49:25.225     0:06:23.649     26,363 kbps     42,191 kbps     01:55:07.267    33,767 kbps     01:52:31.778    32,967 kbps     01:52:26.806    109,956 bytes   255,527 bytes   01:51:22.542    
23              1:55:48.875     0:04:25.531     28,546 kbps     41,991 kbps     01:57:17.830    35,369 kbps     01:57:17.030    33,238 kbps     01:58:03.776    119,061 bytes   262,890 bytes   01:59:23.322    
24              2:00:14.407     0:05:21.621     30,810 kbps     38,618 kbps     02:00:37.330    34,175 kbps     02:02:05.584    33,868 kbps     02:04:50.649    128,503 bytes   248,953 bytes   02:05:16.642    
25              2:05:36.028     0:04:17.523     30,260 kbps     38,935 kbps     02:09:48.313    34,807 kbps     02:08:30.169    33,064 kbps     02:08:29.268    126,210 bytes   249,367 bytes   02:07:47.059    
26              2:09:53.552     0:05:18.151     30,717 kbps     36,920 kbps     02:13:15.220    34,114 kbps     02:11:09.828    33,096 kbps     02:12:34.212    128,115 bytes   249,014 bytes   02:12:06.418    
27              2:15:11.703     0:06:42.935     30,958 kbps     40,013 kbps     02:21:18.903    34,166 kbps     02:16:41.526    33,371 kbps     02:21:22.640    129,121 bytes   249,868 bytes   02:15:13.238    
28              2:21:54.639     0:07:52.371     32,071 kbps     38,296 kbps     02:21:56.040    34,598 kbps     02:29:30.728    33,925 kbps     02:28:19.423    133,764 bytes   267,509 bytes   02:29:35.099    
29              2:29:47.011     0:00:01.001     111 kbps        0 kbps          00:00:00.000    0 kbps          00:00:00.000    0 kbps          00:00:00.000    478 bytes       2,439 bytes     02:29:47.611    

STREAM DIAGNOSTICS:

File            PID             Type            Codec           Language                Seconds                 Bitrate                 Bytes           Packets         
----            ---             ----            -----           --------                --------------          --------------          -------------   -----           
00002.M2TS      4113 (0x1011)   0x1B            AVC                                     8986.911                29,001                  32,578,247,264  177,347,258     
00002.M2TS      4352 (0x1100)   0x80            LPCM            eng (English)           8986.911                1,542                   1,732,696,492   10,784,418      
00002.M2TS      4353 (0x1101)   0x86            DTS-HD MA       eng (English)           8986.911                2,550                   2,864,998,580   16,970,965      
00007.M2TS      4113 (0x1011)   0x1B            AVC                                     0.901                   145                     16,302          112
Bonus Tracks

Code:
                                                                                                                Total   Video                                             
Title                                                           Codec   Length  Movie Size      Disc Size       Bitrate Bitrate Main Audio Track                          Secondary Audio Track
-----                                                           ------  ------- --------------  --------------  ------- ------- ------------------                        ---------------------
00000.MPLS                                                      AVC     0:24:07 5,804,101,632   45,699,086,382  32.07   28.87   LPCM 2.0 1536Kbps (48kHz/16-bit)
Code:
DISC INFO:

Disc Title:     ERBRD5373
Disc Size:      45,699,086,382 bytes
Protection:     AACS
BD-Java:        No
BDInfo:         0.5.8

PLAYLIST REPORT:

Name:                   00000.MPLS
Length:                 0:24:07.779 (h:m:s.ms)
Size:                   5,804,101,632 bytes
Total Bitrate:          32.07 Mbps

VIDEO:

Codec                   Bitrate             Description     
-----                   -------             -----------     
MPEG-4 AVC Video        28873 kbps          1080i / 29.970 fps / 16:9 / High Profile 4.1

AUDIO:

Codec                           Language        Bitrate         Description     
-----                           --------        -------         -----------     
LPCM Audio                      English         1536 kbps       2.0 / 48 kHz / 1536 kbps / 16-bit

FILES:

Name            Time In         Length          Size            Total Bitrate   
----            -------         ------          ----            -------------   
00008.M2TS      0:00:00.000     0:24:06.778     5,804,070,912   32,094          
00007.M2TS      0:24:06.778     0:00:01.000     30,720          246             

CHAPTERS:

Number          Time In         Length          Avg Video Rate  Max 1-Sec Rate  Max 1-Sec Time  Max 5-Sec Rate  Max 5-Sec Time  Max 10Sec Rate  Max 10Sec Time  Avg Frame Size  Max Frame Size  Max Frame Time  
------          -------         ------          --------------  --------------  --------------  --------------  --------------  --------------  --------------  --------------  --------------  --------------  
1               0:00:00.000     0:04:10.450     29,051 kbps     41,530 kbps     00:01:20.747    35,707 kbps     00:00:36.903    33,027 kbps     00:03:47.460    121,150 bytes   240,596 bytes   00:03:18.531    
2               0:04:10.450     0:05:32.965     24,713 kbps     36,594 kbps     00:08:36.249    32,352 kbps     00:05:32.899    30,138 kbps     00:05:32.899    103,072 bytes   228,761 bytes   00:05:35.468    
3               0:09:43.416     0:04:24.097     29,965 kbps     42,727 kbps     00:10:17.717    35,621 kbps     00:10:16.983    33,630 kbps     00:12:06.859    124,978 bytes   254,547 bytes   00:11:59.785    
4               0:14:07.513     0:05:22.021     29,564 kbps     40,656 kbps     00:16:43.569    35,804 kbps     00:17:08.360    34,188 kbps     00:14:41.347    123,309 bytes   242,404 bytes   00:17:27.846    
5               0:19:29.535     0:04:37.243     31,970 kbps     37,223 kbps     00:19:53.959    35,036 kbps     00:19:37.075    34,714 kbps     00:19:36.441    133,340 bytes   237,915 bytes   00:19:39.678    
6               0:24:06.778     0:00:01.000     111 kbps        0 kbps          00:00:00.000    0 kbps          00:00:00.000    0 kbps          00:00:00.000    478 bytes       2,439 bytes     00:24:07.379    

STREAM DIAGNOSTICS:

File            PID             Type            Codec           Language                Seconds                 Bitrate                 Bytes           Packets         
----            ---             ----            -----           --------                --------------          --------------          -------------   -----           
00008.M2TS      4113 (0x1011)   0x1B            AVC                                     1446.679                28,895                  5,225,204,026   28,444,929      
00008.M2TS      4352 (0x1100)   0x80            LPCM            eng (English)           1446.679                1,543                   278,939,184     1,736,136       
00007.M2TS      4113 (0x1011)   0x1B            AVC                                     0.901                   145                     16,302          112
Attached Images
File Type: jpg ERBRD5373-00002-bitrate-01s.jpg (19.8 KB, 0 views)
File Type: jpg ERBRD5373-00000-bitrate-01s.jpg (19.1 KB, 0 views)
  Reply With Quote
Old 01-19-2019, 11:34 PM   #3
McCrutchy McCrutchy is offline
Contributor
 
McCrutchy's Avatar
 
Dec 2008
East Coast, USA
2
360
3680
173
5
14
Default

Please note: I have not watched this yet, but I wanted to post the information now to avoid confusion with the upcoming Japan-only release of Voodoo Lounge in Japan, which is a later concert on the same tour.
  Reply With Quote
Reply
Go Back   Blu-ray Forum > Audio > Music / Audiophiles > Blu-ray Music and High Quality Music


Thread Tools
Display Modes

Posting Rules
You may not post new threads
You may not post replies
You may not post attachments
You may not edit your posts

BB code is On
Smilies are On
[IMG] code is On
HTML code is Off

Forum Jump


All times are GMT. The time now is 05:53 PM.