Best Blu-ray Movie Deals

Best Blu-ray Movie Deals, See All the Deals »
Top deals | New deals  
 All countries United States United Kingdom Canada Germany France Spain Italy Australia Japan
Chucky: The Complete 7-Movie Collection (Blu-ray)
$19.99
 
Fast & Furious 8-Movie Collection 4K (Blu-ray)
$54.93
 
John Wick: Chapter 3 - Parabellum 4K (Blu-ray)
$29.99
 
Murder! (Blu-ray)
$19.98
4 hrs ago
Local Hero (Blu-ray)
$27.37
11 hrs ago
Spartacus: The Complete Series (Blu-ray)
$26.99
 
Men in Black: International 4K (Blu-ray)
$29.99
 
Conjuring Universe Collection (Blu-ray)
$24.48
 
The Banana Splits (Blu-ray)
$19.99
4 hrs ago
The New Scooby-Doo Movies: The (Almost) Complete Collection (Blu-ray)
$30.38
 
Pokémon: Detective Pikachu 4K (Blu-ray)
$29.99
 
The Bourne Classified Collection (Blu-ray)
$14.99
 
What's your next favorite movie?
Join our movie community to find out


Image from: Life of Pi (2012)

Go Back   Blu-ray Forum > Audio > Music / Audiophiles > Blu-ray Music and High Quality Music


Reply
 
Thread Tools Display Modes
Old 11-17-2018, 02:14 AM   #1
McCrutchy McCrutchy is online now
Contributor
 
McCrutchy's Avatar
 
Dec 2008
East Coast, USA
2
300
3440
173
5
13
Default Karajan: Beethoven Symphonies (1975-1977) Dolby Atmos Blu-ray Audio



Out today from Universal Music / Deutsche Grammophon.
  Reply With Quote
Old 11-17-2018, 02:15 AM   #2
McCrutchy McCrutchy is online now
Contributor
 
McCrutchy's Avatar
 
Dec 2008
East Coast, USA
2
300
3440
173
5
13
Default

BDInfo scan:

Please note that my standalone version of BDInfo does not display Dolby Atmos metadata, so I only see the Dolby TrueHD core. As I do not have Atmos capability, I cannot personally verify that Dolby Atmos is present on the discs as advertised, though obviously, I assume it is.

This release contains no video content, only static menu screens with a selectable tracklist. The first disc contains the first five symphonies, while the second disc contains the remaining four symphonies, as well as two audio interviews with Karajan--one in German and the other in English--that were originally included on a bonus LP in some versions of the 1977 vinyl box set. The release comes in a trifold digipak with a booklet that contains a mixture of black and white and color photographs and a text essay in German and English, although there appears to be significantly more photos and scholarship in the booklet that was included in the vinyl box set.

Disc 1: Symphonies 1-5


Code:
                                                                                                                Total   Video                                             
Title                                                           Codec   Length  Movie Size      Disc Size       Bitrate Bitrate Main Audio Track                          Secondary Audio Track
-----                                                           ------  ------- --------------  --------------  ------- ------- ------------------                        ---------------------
00000.MPLS                                                      AVC     2:44:31 39,287,322,624  39,298,718,076  31.84   0.95    Dolby TrueHD 7.1 5408Kbps (48kHz/24-bit)  DTS-HD Master 5.1 12704Kbps (192kHz/24-bit)
Code:
DISC INFO:

Disc Title:     DGG_KARAJAN_BEETHOVEN_DISC1
Disc Size:      39,298,718,076 bytes
Protection:     AACS
BD-Java:        Yes
BDInfo:         0.5.8

PLAYLIST REPORT:

Name:                   00000.MPLS
Length:                 2:44:31.127 (h:m:s.ms)
Size:                   39,287,322,624 bytes
Total Bitrate:          31.84 Mbps

VIDEO:

Codec                   Bitrate             Description     
-----                   -------             -----------     
MPEG-4 AVC Video        950 kbps            1080i / 29.970 fps / 16:9 / High Profile 4.1

AUDIO:

Codec                           Language        Bitrate         Description     
-----                           --------        -------         -----------     
Dolby TrueHD Audio              German          5408 kbps       7.1 / 48 kHz / 5408 kbps / 24-bit (AC3 Embedded: 5.1-EX / 48 kHz / 640 kbps)
DTS-HD Master Audio             German          12704 kbps      5.1 / 192 kHz / 12704 kbps / 24-bit (DTS Core: 5.1 / 48 kHz / 1509 kbps / 24-bit)
LPCM Audio                      German          9216 kbps       2.0 / 192 kHz / 9216 kbps / 24-bit

FILES:

Name            Time In         Length          Size            Total Bitrate   
----            -------         ------          ----            -------------   
00000.M2TS      0:00:00.000     0:23:22.734     5,621,821,440   32,062          
00001.M2TS      0:23:22.734     0:30:28.459     7,423,180,800   32,478          
00002.M2TS      0:53:51.194     0:48:09.920     11,437,977,600  31,663          
00003.M2TS      1:42:01.114     0:32:23.908     7,581,038,592   31,199          
00004.M2TS      2:14:25.023     0:30:06.104     7,223,304,192   31,995          

CHAPTERS:

Number          Time In         Length          Avg Video Rate  Max 1-Sec Rate  Max 1-Sec Time  Max 5-Sec Rate  Max 5-Sec Time  Max 10Sec Rate  Max 10Sec Time  Avg Frame Size  Max Frame Size  Max Frame Time  
------          -------         ------          --------------  --------------  --------------  --------------  --------------  --------------  --------------  --------------  --------------  --------------  
1               0:00:00.000     0:07:51.637     950 kbps        1,353 kbps      00:07:50.069    1,031 kbps      00:07:46.065    990 kbps        00:07:41.060    3,962 bytes     89,917 bytes    00:00:00.967    
2               0:07:51.637     0:06:07.133     950 kbps        1,564 kbps      00:13:56.902    1,073 kbps      00:13:52.898    1,011 kbps      00:13:47.893    3,962 bytes     89,918 bytes    00:07:52.605    
3               0:13:58.771     0:03:41.020     950 kbps        1,584 kbps      00:17:37.890    1,077 kbps      00:17:33.886    1,013 kbps      00:17:28.881    3,962 bytes     89,918 bytes    00:13:59.738    
4               0:17:39.792     0:05:42.942     950 kbps        1,514 kbps      00:23:20.932    1,063 kbps      00:23:16.928    1,006 kbps      00:23:11.923    3,962 bytes     89,917 bytes    00:17:40.759    
5               0:23:22.734     0:10:19.652     950 kbps        1,302 kbps      00:33:40.852    1,020 kbps      00:33:36.848    985 kbps        00:33:31.843    3,962 bytes     89,917 bytes    00:23:23.702    
6               0:33:42.387     0:10:00.833     950 kbps        1,373 kbps      00:43:41.585    1,035 kbps      00:43:37.581    992 kbps        00:43:32.576    3,962 bytes     89,918 bytes    00:33:43.354    
7               0:43:43.220     0:03:43.022     950 kbps        1,584 kbps      00:47:24.341    1,077 kbps      00:47:20.337    1,013 kbps      00:47:15.332    3,962 bytes     89,918 bytes    00:43:44.188    
8               0:47:26.243     0:06:24.951     950 kbps        1,494 kbps      00:53:49.426    1,059 kbps      00:53:45.422    1,004 kbps      00:53:40.417    3,962 bytes     89,916 bytes    00:47:27.211    
9               0:53:51.194     0:13:33.078     950 kbps        1,403 kbps      01:07:22.705    1,041 kbps      01:07:18.701    995 kbps        01:07:13.696    3,962 bytes     89,917 bytes    00:53:52.162    
10              1:07:24.273     0:16:33.826     950 kbps        1,584 kbps      01:23:56.164    1,077 kbps      01:23:52.160    1,013 kbps      01:23:47.155    3,962 bytes     89,947 bytes    01:07:25.241    
11              1:23:58.099     0:06:12.905     950 kbps        1,494 kbps      01:30:09.270    1,059 kbps      01:30:05.266    1,004 kbps      01:30:00.261    3,962 bytes     89,947 bytes    01:23:59.067    
12              1:30:11.005     0:11:50.109     950 kbps        1,443 kbps      01:41:59.413    1,049 kbps      01:41:55.409    999 kbps        01:41:50.404    3,962 bytes     89,946 bytes    01:30:11.973    
13              1:42:01.114     0:10:32.732     950 kbps        1,333 kbps      01:52:32.345    1,027 kbps      01:52:28.341    988 kbps        01:52:23.336    3,962 bytes     89,946 bytes    01:42:02.082    
14              1:52:33.847     0:10:05.338     950 kbps        1,564 kbps      02:02:37.349    1,073 kbps      02:02:33.345    1,011 kbps      02:02:28.340    3,962 bytes     89,947 bytes    01:52:34.814    
15              2:02:39.185     0:05:53.786     950 kbps        1,443 kbps      02:08:31.236    1,049 kbps      02:08:27.232    999 kbps        02:08:22.227    3,962 bytes     89,947 bytes    02:02:40.152    
16              2:08:32.971     0:05:52.051     950 kbps        1,544 kbps      02:14:23.221    1,069 kbps      02:14:19.217    1,009 kbps      02:14:14.212    3,962 bytes     89,946 bytes    02:08:33.939    
17              2:14:25.023     0:07:10.596     950 kbps        1,353 kbps      02:21:34.052    1,031 kbps      02:21:30.048    990 kbps        02:21:25.043    3,962 bytes     89,946 bytes    02:14:25.991    
18              2:21:35.620     0:09:35.241     950 kbps        1,544 kbps      02:31:09.093    1,069 kbps      02:31:05.089    1,009 kbps      02:31:00.084    3,962 bytes     89,946 bytes    02:21:36.588    
19              2:31:10.861     0:04:38.077     950 kbps        1,584 kbps      02:35:47.037    1,077 kbps      02:35:43.033    1,013 kbps      02:35:38.028    3,962 bytes     89,947 bytes    02:31:11.829    
20              2:35:48.939     0:08:42.188     950 kbps        1,544 kbps      02:44:29.359    1,069 kbps      02:44:25.355    1,009 kbps      02:44:20.350    3,963 bytes     89,946 bytes    02:35:49.907    

STREAM DIAGNOSTICS:

File            PID             Type            Codec           Language                Seconds                 Bitrate                 Bytes           Packets         
----            ---             ----            -----           --------                --------------          --------------          -------------   -----           
00000.M2TS      4113 (0x1011)   0x1B            AVC                                     1402.601                950                     166,577,551     910,869         
00000.M2TS      4352 (0x1100)   0x83            TrueHD          deu (German)            1402.601                6,137                   1,075,980,864   6,828,126       
00000.M2TS      4353 (0x1101)   0x86            DTS-HD MA       deu (German)            1402.601                12,907                  2,262,865,048   12,516,679      
00000.M2TS      4354 (0x1102)   0x80            LPCM            deu (German)            1402.601                9,223                   1,617,090,200   8,977,600       
00001.M2TS      4113 (0x1011)   0x1B            AVC                                     1828.327                950                     217,133,281     1,187,315       
00001.M2TS      4352 (0x1100)   0x83            TrueHD          deu (German)            1828.327                6,409                   1,464,720,476   9,263,696       
00001.M2TS      4353 (0x1101)   0x86            DTS-HD MA       deu (German)            1828.327                13,013                  2,974,002,364   16,447,877      
00001.M2TS      4354 (0x1102)   0x80            LPCM            deu (German)            1828.327                9,223                   2,107,860,216   11,702,208      
00002.M2TS      4113 (0x1011)   0x1B            AVC                                     2889.787                950                     343,183,827     1,876,576       
00002.M2TS      4352 (0x1100)   0x83            TrueHD          deu (German)            2889.787                5,943                   2,146,849,174   13,894,180      
00002.M2TS      4353 (0x1101)   0x86            DTS-HD MA       deu (German)            2889.787                12,612                  4,555,669,364   25,209,516      
00002.M2TS      4354 (0x1102)   0x80            LPCM            deu (German)            2889.787                9,223                   3,331,534,360   18,495,680      
00003.M2TS      4113 (0x1011)   0x1B            AVC                                     1943.775                950                     230,843,042     1,262,283       
00003.M2TS      4352 (0x1100)   0x83            TrueHD          deu (German)            1943.775                5,721                   1,389,958,898   9,030,541       
00003.M2TS      4353 (0x1101)   0x86            DTS-HD MA       deu (German)            1943.775                12,404                  3,013,735,368   16,685,565      
00003.M2TS      4354 (0x1102)   0x80            LPCM            deu (German)            1943.775                9,223                   2,240,939,448   12,441,024      
00004.M2TS      4113 (0x1011)   0x1B            AVC                                     1805.971                950                     214,478,501     1,172,798       
00004.M2TS      4352 (0x1100)   0x83            TrueHD          deu (German)            1805.971                6,138                   1,385,631,236   8,956,775       
00004.M2TS      4353 (0x1101)   0x86            DTS-HD MA       deu (German)            1805.971                12,711                  2,869,516,148   15,872,496      
00004.M2TS      4354 (0x1102)   0x80            LPCM            deu (German)            1805.971                9,223                   2,082,020,204   11,558,752
Disc 2: Symphonies 6-9

Code:
                                                                                                                Total   Video                                             
Title                                                           Codec   Length  Movie Size      Disc Size       Bitrate Bitrate Main Audio Track                          Secondary Audio Track
-----                                                           ------  ------- --------------  --------------  ------- ------- ------------------                        ---------------------
00000.MPLS                                                      AVC     2:44:01 39,009,165,312  44,580,758,644  31.71   0.95    Dolby TrueHD 7.1 5448Kbps (48kHz/24-bit)  DTS-HD Master 5.1 12554Kbps (192kHz/24-bit)
Code:
DISC INFO:

Disc Title:     DGG_KARAJAN_BEETHOVEN_DISC2
Disc Size:      44,580,758,644 bytes
Protection:     AACS
BD-Java:        Yes
BDInfo:         0.5.8

PLAYLIST REPORT:

Name:                   00000.MPLS
Length:                 2:44:01.531 (h:m:s.ms)
Size:                   39,009,165,312 bytes
Total Bitrate:          31.71 Mbps

VIDEO:

Codec                   Bitrate             Description     
-----                   -------             -----------     
MPEG-4 AVC Video        950 kbps            1080i / 29.970 fps / 16:9 / High Profile 4.1

AUDIO:

Codec                           Language        Bitrate         Description     
-----                           --------        -------         -----------     
Dolby TrueHD Audio              German          5448 kbps       7.1 / 48 kHz / 5448 kbps / 24-bit (AC3 Embedded: 5.1-EX / 48 kHz / 640 kbps)
DTS-HD Master Audio             German          12554 kbps      5.1 / 192 kHz / 12554 kbps / 24-bit (DTS Core: 5.1 / 48 kHz / 1509 kbps / 24-bit)
LPCM Audio                      German          9216 kbps       2.0 / 192 kHz / 9216 kbps / 24-bit

FILES:

Name            Time In         Length          Size            Total Bitrate   
----            -------         ------          ----            -------------   
00000.M2TS      0:00:00.000     0:38:35.980     9,115,963,392   31,489          
00001.M2TS      0:38:35.980     0:33:31.509     7,983,949,824   31,753          
00002.M2TS      1:12:07.489     0:24:52.624     5,921,839,104   31,739          
00003.M2TS      1:37:00.114     1:07:01.417     15,987,412,992  31,805          

CHAPTERS:

Number          Time In         Length          Avg Video Rate  Max 1-Sec Rate  Max 1-Sec Time  Max 5-Sec Rate  Max 5-Sec Time  Max 10Sec Rate  Max 10Sec Time  Avg Frame Size  Max Frame Size  Max Frame Time  
------          -------         ------          --------------  --------------  --------------  --------------  --------------  --------------  --------------  --------------  --------------  --------------  
1               0:00:00.000     0:09:12.084     950 kbps        1,494 kbps      00:09:10.349    1,059 kbps      00:09:06.345    1,004 kbps      00:09:01.340    3,962 bytes     89,946 bytes    00:00:00.967    
2               0:09:12.084     0:11:28.287     950 kbps        1,514 kbps      00:20:38.570    1,063 kbps      00:20:34.566    1,006 kbps      00:20:29.561    3,962 bytes     89,946 bytes    00:09:13.052    
3               0:20:40.372     0:05:41.040     950 kbps        1,544 kbps      00:26:19.611    1,069 kbps      00:26:15.607    1,009 kbps      00:26:10.602    3,962 bytes     89,946 bytes    00:20:41.340    
4               0:26:21.413     0:03:29.542     950 kbps        1,423 kbps      00:29:49.320    1,045 kbps      00:29:45.316    997 kbps        00:29:40.311    3,962 bytes     89,946 bytes    00:26:22.380    
5               0:29:50.955     0:08:45.024     950 kbps        1,474 kbps      00:38:34.278    1,055 kbps      00:38:30.274    1,002 kbps      00:38:25.269    3,962 bytes     89,945 bytes    00:29:51.923    
6               0:38:35.980     0:11:29.689     950 kbps        960 kbps        00:38:36.013    952 kbps        00:38:36.013    951 kbps        00:38:36.013    3,962 bytes     89,946 bytes    00:38:36.947    
7               0:50:05.669     0:08:03.349     950 kbps        1,607 kbps      00:58:07.050    1,081 kbps      00:58:03.046    1,016 kbps      00:57:58.041    3,962 bytes     89,946 bytes    00:50:06.636    
8               0:58:09.018     0:07:20.173     950 kbps        1,564 kbps      01:05:27.356    1,073 kbps      01:05:23.352    1,011 kbps      01:05:18.347    3,962 bytes     89,947 bytes    00:58:09.986    
9               1:05:29.191     0:06:38.297     950 kbps        1,607 kbps      01:12:05.487    1,081 kbps      01:12:01.483    1,016 kbps      01:11:56.478    3,962 bytes     89,946 bytes    01:05:30.159    
10              1:12:07.489     0:08:59.238     950 kbps        1,544 kbps      01:21:04.926    1,069 kbps      01:21:00.922    1,009 kbps      01:20:55.917    3,962 bytes     89,946 bytes    01:12:08.457    
11              1:21:06.728     0:03:51.497     950 kbps        1,403 kbps      01:24:56.658    1,041 kbps      01:24:52.654    995 kbps        01:24:47.649    3,962 bytes     89,946 bytes    01:21:07.696    
12              1:24:58.226     0:05:19.318     950 kbps        960 kbps        01:24:58.259    952 kbps        01:24:58.259    951 kbps        01:24:58.259    3,962 bytes     89,947 bytes    01:24:59.194    
13              1:30:17.545     0:06:42.568     950 kbps        1,353 kbps      01:36:58.546    1,031 kbps      01:36:54.542    990 kbps        01:36:49.537    3,962 bytes     89,946 bytes    01:30:18.513    
14              1:37:00.114     0:15:23.656     950 kbps        1,564 kbps      01:52:21.935    1,073 kbps      01:52:17.931    1,011 kbps      01:52:12.926    3,962 bytes     89,946 bytes    01:37:01.081    
15              1:52:23.770     0:10:09.909     950 kbps        1,403 kbps      02:02:32.078    1,041 kbps      02:02:28.074    995 kbps        02:02:23.069    3,962 bytes     89,946 bytes    01:52:24.737    
16              2:02:33.679     0:16:57.016     950 kbps        960 kbps        02:02:33.713    952 kbps        02:02:33.713    951 kbps        02:02:33.713    3,962 bytes     89,947 bytes    02:02:34.647    
17              2:19:30.695     0:06:27.887     950 kbps        1,474 kbps      02:25:56.881    1,055 kbps      02:25:52.877    1,002 kbps      02:25:47.872    3,962 bytes     89,946 bytes    02:19:31.663    
18              2:25:58.583     0:18:02.948     950 kbps        1,607 kbps      02:43:59.563    1,081 kbps      02:43:55.559    1,016 kbps      02:43:50.554    3,962 bytes     89,946 bytes    02:25:59.550    

STREAM DIAGNOSTICS:

File            PID             Type            Codec           Language                Seconds                 Bitrate                 Bytes           Packets         
----            ---             ----            -----           --------                --------------          --------------          -------------   -----           
00000.M2TS      4113 (0x1011)   0x1B            AVC                                     2315.847                950                     275,027,300     1,503,888       
00000.M2TS      4352 (0x1100)   0x83            TrueHD          deu (German)            2315.847                6,068                   1,756,472,746   11,219,330      
00000.M2TS      4353 (0x1101)   0x86            DTS-HD MA       deu (German)            2315.847                12,391                  3,587,059,256   19,855,993      
00000.M2TS      4354 (0x1102)   0x80            LPCM            deu (German)            2315.847                9,223                   2,669,838,688   14,822,144      
00001.M2TS      4113 (0x1011)   0x1B            AVC                                     2011.376                950                     238,870,780     1,306,178       
00001.M2TS      4352 (0x1100)   0x83            TrueHD          deu (German)            2011.376                6,158                   1,548,302,594   9,904,951       
00001.M2TS      4353 (0x1101)   0x86            DTS-HD MA       deu (German)            2011.376                12,526                  3,149,200,012   17,430,803      
00001.M2TS      4354 (0x1102)   0x80            LPCM            deu (German)            2011.376                9,223                   2,318,880,256   12,873,728      
00002.M2TS      4113 (0x1011)   0x1B            AVC                                     1492.491                950                     177,252,144     969,240         
00002.M2TS      4352 (0x1100)   0x83            TrueHD          deu (German)            1492.491                6,233                   1,162,874,638   7,462,626       
00002.M2TS      4353 (0x1101)   0x86            DTS-HD MA       deu (German)            1492.491                12,402                  2,313,825,116   12,808,159      
00002.M2TS      4354 (0x1102)   0x80            LPCM            deu (German)            1492.491                9,223                   1,720,703,864   9,552,832       
00003.M2TS      4113 (0x1011)   0x1B            AVC                                     4021.284                950                     477,551,363     2,611,314       
00003.M2TS      4352 (0x1100)   0x83            TrueHD          deu (German)            4021.284                6,011                   3,021,563,378   19,403,341      
00003.M2TS      4353 (0x1101)   0x86            DTS-HD MA       deu (German)            4021.284                12,721                  6,394,311,320   35,381,584      
00003.M2TS      4354 (0x1102)   0x80            LPCM            deu (German)            4021.284                9,223                   4,635,841,100   25,736,800
Das Interview - Herbert von Karajan im gespräch mit Joachim Kaiser

Code:
QUICK SUMMARY:

Disc Title: DGG_KARAJAN_BEETHOVEN_DISC2
Disc Size: 44,580,758,644 bytes
Protection: AACS
BD-Java: Yes
Playlist: 00001.MPLS
Size: 3,066,734,592 bytes
Length: 0:16:03.996
Total Bitrate: 25.45 Mbps
Video: MPEG-4 AVC Video / 21961 kbps / 1080i / 29.970 fps / 16:9 / High Profile 4.1
Audio: German / LPCM Audio / 2.0 / 48 kHz / 2304 kbps / 24-bit
Karajan in conversation - Herbert von Karajan talks to Richard Osborne (presented in English, not German)

Code:
QUICK SUMMARY:

Disc Title: DGG_KARAJAN_BEETHOVEN_DISC2
Disc Size: 44,580,758,644 bytes
Protection: AACS
BD-Java: Yes
Playlist: 00002.MPLS
Size: 2,493,007,872 bytes
Length: 0:13:33.813
Total Bitrate: 24.51 Mbps
Video: MPEG-4 AVC Video / 21060 kbps / 1080i / 29.970 fps / 16:9 / High Profile 4.1
Audio: German / LPCM Audio / 2.0 / 48 kHz / 2304 kbps / 24-bit
  Reply With Quote
Old 11-17-2018, 05:07 PM   #3
bigshot bigshot is offline
Blu-ray Ninja
 
bigshot's Avatar
 
Aug 2010
12
82
3
2
Default

I'm assuming that this is remixed. Does the mix correct the bizarre balance issues and spotlighting in the original stereo mix? The performances on these were good, but the mix was bizarre at times.
  Reply With Quote
Old 11-17-2018, 08:35 PM   #4
MooneyRara MooneyRara is offline
Moderator
 
MooneyRara's Avatar
 
Sep 2013
167
949
3
Default

Quote:
Originally Posted by McCrutchy View Post
BDInfo scan:
[Show spoiler]

Please note that my standalone version of BDInfo does not display Dolby Atmos metadata, so I only see the Dolby TrueHD core. As I do not have Atmos capability, I cannot personally verify that Dolby Atmos is present on the discs as advertised, though obviously, I assume it is.

This release contains no video content, only static menu screens with a selectable tracklist. The first disc contains the first five symphonies, while the second disc contains the remaining four symphonies, as well as two audio interviews with Karajan--one in German and the other in English--that were originally included on a bonus LP in some versions of the 1977 vinyl box set. The release comes in a trifold digipak with a booklet that contains a mixture of black and white and color photographs and a text essay in German and English, although there appears to be significantly more photos and scholarship in the booklet that was included in the vinyl box set.

Disc 1: Symphonies 1-5


Code:
                                                                                                                Total   Video                                             
Title                                                           Codec   Length  Movie Size      Disc Size       Bitrate Bitrate Main Audio Track                          Secondary Audio Track
-----                                                           ------  ------- --------------  --------------  ------- ------- ------------------                        ---------------------
00000.MPLS                                                      AVC     2:44:31 39,287,322,624  39,298,718,076  31.84   0.95    Dolby TrueHD 7.1 5408Kbps (48kHz/24-bit)  DTS-HD Master 5.1 12704Kbps (192kHz/24-bit)
Code:
DISC INFO:

Disc Title:     DGG_KARAJAN_BEETHOVEN_DISC1
Disc Size:      39,298,718,076 bytes
Protection:     AACS
BD-Java:        Yes
BDInfo:         0.5.8

PLAYLIST REPORT:

Name:                   00000.MPLS
Length:                 2:44:31.127 (h:m:s.ms)
Size:                   39,287,322,624 bytes
Total Bitrate:          31.84 Mbps

VIDEO:

Codec                   Bitrate             Description     
-----                   -------             -----------     
MPEG-4 AVC Video        950 kbps            1080i / 29.970 fps / 16:9 / High Profile 4.1

AUDIO:

Codec                           Language        Bitrate         Description     
-----                           --------        -------         -----------     
Dolby TrueHD Audio              German          5408 kbps       7.1 / 48 kHz / 5408 kbps / 24-bit (AC3 Embedded: 5.1-EX / 48 kHz / 640 kbps)
DTS-HD Master Audio             German          12704 kbps      5.1 / 192 kHz / 12704 kbps / 24-bit (DTS Core: 5.1 / 48 kHz / 1509 kbps / 24-bit)
LPCM Audio                      German          9216 kbps       2.0 / 192 kHz / 9216 kbps / 24-bit

FILES:

Name            Time In         Length          Size            Total Bitrate   
----            -------         ------          ----            -------------   
00000.M2TS      0:00:00.000     0:23:22.734     5,621,821,440   32,062          
00001.M2TS      0:23:22.734     0:30:28.459     7,423,180,800   32,478          
00002.M2TS      0:53:51.194     0:48:09.920     11,437,977,600  31,663          
00003.M2TS      1:42:01.114     0:32:23.908     7,581,038,592   31,199          
00004.M2TS      2:14:25.023     0:30:06.104     7,223,304,192   31,995          

CHAPTERS:

Number          Time In         Length          Avg Video Rate  Max 1-Sec Rate  Max 1-Sec Time  Max 5-Sec Rate  Max 5-Sec Time  Max 10Sec Rate  Max 10Sec Time  Avg Frame Size  Max Frame Size  Max Frame Time  
------          -------         ------          --------------  --------------  --------------  --------------  --------------  --------------  --------------  --------------  --------------  --------------  
1               0:00:00.000     0:07:51.637     950 kbps        1,353 kbps      00:07:50.069    1,031 kbps      00:07:46.065    990 kbps        00:07:41.060    3,962 bytes     89,917 bytes    00:00:00.967    
2               0:07:51.637     0:06:07.133     950 kbps        1,564 kbps      00:13:56.902    1,073 kbps      00:13:52.898    1,011 kbps      00:13:47.893    3,962 bytes     89,918 bytes    00:07:52.605    
3               0:13:58.771     0:03:41.020     950 kbps        1,584 kbps      00:17:37.890    1,077 kbps      00:17:33.886    1,013 kbps      00:17:28.881    3,962 bytes     89,918 bytes    00:13:59.738    
4               0:17:39.792     0:05:42.942     950 kbps        1,514 kbps      00:23:20.932    1,063 kbps      00:23:16.928    1,006 kbps      00:23:11.923    3,962 bytes     89,917 bytes    00:17:40.759    
5               0:23:22.734     0:10:19.652     950 kbps        1,302 kbps      00:33:40.852    1,020 kbps      00:33:36.848    985 kbps        00:33:31.843    3,962 bytes     89,917 bytes    00:23:23.702    
6               0:33:42.387     0:10:00.833     950 kbps        1,373 kbps      00:43:41.585    1,035 kbps      00:43:37.581    992 kbps        00:43:32.576    3,962 bytes     89,918 bytes    00:33:43.354    
7               0:43:43.220     0:03:43.022     950 kbps        1,584 kbps      00:47:24.341    1,077 kbps      00:47:20.337    1,013 kbps      00:47:15.332    3,962 bytes     89,918 bytes    00:43:44.188    
8               0:47:26.243     0:06:24.951     950 kbps        1,494 kbps      00:53:49.426    1,059 kbps      00:53:45.422    1,004 kbps      00:53:40.417    3,962 bytes     89,916 bytes    00:47:27.211    
9               0:53:51.194     0:13:33.078     950 kbps        1,403 kbps      01:07:22.705    1,041 kbps      01:07:18.701    995 kbps        01:07:13.696    3,962 bytes     89,917 bytes    00:53:52.162    
10              1:07:24.273     0:16:33.826     950 kbps        1,584 kbps      01:23:56.164    1,077 kbps      01:23:52.160    1,013 kbps      01:23:47.155    3,962 bytes     89,947 bytes    01:07:25.241    
11              1:23:58.099     0:06:12.905     950 kbps        1,494 kbps      01:30:09.270    1,059 kbps      01:30:05.266    1,004 kbps      01:30:00.261    3,962 bytes     89,947 bytes    01:23:59.067    
12              1:30:11.005     0:11:50.109     950 kbps        1,443 kbps      01:41:59.413    1,049 kbps      01:41:55.409    999 kbps        01:41:50.404    3,962 bytes     89,946 bytes    01:30:11.973    
13              1:42:01.114     0:10:32.732     950 kbps        1,333 kbps      01:52:32.345    1,027 kbps      01:52:28.341    988 kbps        01:52:23.336    3,962 bytes     89,946 bytes    01:42:02.082    
14              1:52:33.847     0:10:05.338     950 kbps        1,564 kbps      02:02:37.349    1,073 kbps      02:02:33.345    1,011 kbps      02:02:28.340    3,962 bytes     89,947 bytes    01:52:34.814    
15              2:02:39.185     0:05:53.786     950 kbps        1,443 kbps      02:08:31.236    1,049 kbps      02:08:27.232    999 kbps        02:08:22.227    3,962 bytes     89,947 bytes    02:02:40.152    
16              2:08:32.971     0:05:52.051     950 kbps        1,544 kbps      02:14:23.221    1,069 kbps      02:14:19.217    1,009 kbps      02:14:14.212    3,962 bytes     89,946 bytes    02:08:33.939    
17              2:14:25.023     0:07:10.596     950 kbps        1,353 kbps      02:21:34.052    1,031 kbps      02:21:30.048    990 kbps        02:21:25.043    3,962 bytes     89,946 bytes    02:14:25.991    
18              2:21:35.620     0:09:35.241     950 kbps        1,544 kbps      02:31:09.093    1,069 kbps      02:31:05.089    1,009 kbps      02:31:00.084    3,962 bytes     89,946 bytes    02:21:36.588    
19              2:31:10.861     0:04:38.077     950 kbps        1,584 kbps      02:35:47.037    1,077 kbps      02:35:43.033    1,013 kbps      02:35:38.028    3,962 bytes     89,947 bytes    02:31:11.829    
20              2:35:48.939     0:08:42.188     950 kbps        1,544 kbps      02:44:29.359    1,069 kbps      02:44:25.355    1,009 kbps      02:44:20.350    3,963 bytes     89,946 bytes    02:35:49.907    

STREAM DIAGNOSTICS:

File            PID             Type            Codec           Language                Seconds                 Bitrate                 Bytes           Packets         
----            ---             ----            -----           --------                --------------          --------------          -------------   -----           
00000.M2TS      4113 (0x1011)   0x1B            AVC                                     1402.601                950                     166,577,551     910,869         
00000.M2TS      4352 (0x1100)   0x83            TrueHD          deu (German)            1402.601                6,137                   1,075,980,864   6,828,126       
00000.M2TS      4353 (0x1101)   0x86            DTS-HD MA       deu (German)            1402.601                12,907                  2,262,865,048   12,516,679      
00000.M2TS      4354 (0x1102)   0x80            LPCM            deu (German)            1402.601                9,223                   1,617,090,200   8,977,600       
00001.M2TS      4113 (0x1011)   0x1B            AVC                                     1828.327                950                     217,133,281     1,187,315       
00001.M2TS      4352 (0x1100)   0x83            TrueHD          deu (German)            1828.327                6,409                   1,464,720,476   9,263,696       
00001.M2TS      4353 (0x1101)   0x86            DTS-HD MA       deu (German)            1828.327                13,013                  2,974,002,364   16,447,877      
00001.M2TS      4354 (0x1102)   0x80            LPCM            deu (German)            1828.327                9,223                   2,107,860,216   11,702,208      
00002.M2TS      4113 (0x1011)   0x1B            AVC                                     2889.787                950                     343,183,827     1,876,576       
00002.M2TS      4352 (0x1100)   0x83            TrueHD          deu (German)            2889.787                5,943                   2,146,849,174   13,894,180      
00002.M2TS      4353 (0x1101)   0x86            DTS-HD MA       deu (German)            2889.787                12,612                  4,555,669,364   25,209,516      
00002.M2TS      4354 (0x1102)   0x80            LPCM            deu (German)            2889.787                9,223                   3,331,534,360   18,495,680      
00003.M2TS      4113 (0x1011)   0x1B            AVC                                     1943.775                950                     230,843,042     1,262,283       
00003.M2TS      4352 (0x1100)   0x83            TrueHD          deu (German)            1943.775                5,721                   1,389,958,898   9,030,541       
00003.M2TS      4353 (0x1101)   0x86            DTS-HD MA       deu (German)            1943.775                12,404                  3,013,735,368   16,685,565      
00003.M2TS      4354 (0x1102)   0x80            LPCM            deu (German)            1943.775                9,223                   2,240,939,448   12,441,024      
00004.M2TS      4113 (0x1011)   0x1B            AVC                                     1805.971                950                     214,478,501     1,172,798       
00004.M2TS      4352 (0x1100)   0x83            TrueHD          deu (German)            1805.971                6,138                   1,385,631,236   8,956,775       
00004.M2TS      4353 (0x1101)   0x86            DTS-HD MA       deu (German)            1805.971                12,711                  2,869,516,148   15,872,496      
00004.M2TS      4354 (0x1102)   0x80            LPCM            deu (German)            1805.971                9,223                   2,082,020,204   11,558,752
Disc 2: Symphonies 6-9

Code:
                                                                                                                Total   Video                                             
Title                                                           Codec   Length  Movie Size      Disc Size       Bitrate Bitrate Main Audio Track                          Secondary Audio Track
-----                                                           ------  ------- --------------  --------------  ------- ------- ------------------                        ---------------------
00000.MPLS                                                      AVC     2:44:01 39,009,165,312  44,580,758,644  31.71   0.95    Dolby TrueHD 7.1 5448Kbps (48kHz/24-bit)  DTS-HD Master 5.1 12554Kbps (192kHz/24-bit)
Code:
DISC INFO:

Disc Title:     DGG_KARAJAN_BEETHOVEN_DISC2
Disc Size:      44,580,758,644 bytes
Protection:     AACS
BD-Java:        Yes
BDInfo:         0.5.8

PLAYLIST REPORT:

Name:                   00000.MPLS
Length:                 2:44:01.531 (h:m:s.ms)
Size:                   39,009,165,312 bytes
Total Bitrate:          31.71 Mbps

VIDEO:

Codec                   Bitrate             Description     
-----                   -------             -----------     
MPEG-4 AVC Video        950 kbps            1080i / 29.970 fps / 16:9 / High Profile 4.1

AUDIO:

Codec                           Language        Bitrate         Description     
-----                           --------        -------         -----------     
Dolby TrueHD Audio              German          5448 kbps       7.1 / 48 kHz / 5448 kbps / 24-bit (AC3 Embedded: 5.1-EX / 48 kHz / 640 kbps)
DTS-HD Master Audio             German          12554 kbps      5.1 / 192 kHz / 12554 kbps / 24-bit (DTS Core: 5.1 / 48 kHz / 1509 kbps / 24-bit)
LPCM Audio                      German          9216 kbps       2.0 / 192 kHz / 9216 kbps / 24-bit

FILES:

Name            Time In         Length          Size            Total Bitrate   
----            -------         ------          ----            -------------   
00000.M2TS      0:00:00.000     0:38:35.980     9,115,963,392   31,489          
00001.M2TS      0:38:35.980     0:33:31.509     7,983,949,824   31,753          
00002.M2TS      1:12:07.489     0:24:52.624     5,921,839,104   31,739          
00003.M2TS      1:37:00.114     1:07:01.417     15,987,412,992  31,805          

CHAPTERS:

Number          Time In         Length          Avg Video Rate  Max 1-Sec Rate  Max 1-Sec Time  Max 5-Sec Rate  Max 5-Sec Time  Max 10Sec Rate  Max 10Sec Time  Avg Frame Size  Max Frame Size  Max Frame Time  
------          -------         ------          --------------  --------------  --------------  --------------  --------------  --------------  --------------  --------------  --------------  --------------  
1               0:00:00.000     0:09:12.084     950 kbps        1,494 kbps      00:09:10.349    1,059 kbps      00:09:06.345    1,004 kbps      00:09:01.340    3,962 bytes     89,946 bytes    00:00:00.967    
2               0:09:12.084     0:11:28.287     950 kbps        1,514 kbps      00:20:38.570    1,063 kbps      00:20:34.566    1,006 kbps      00:20:29.561    3,962 bytes     89,946 bytes    00:09:13.052    
3               0:20:40.372     0:05:41.040     950 kbps        1,544 kbps      00:26:19.611    1,069 kbps      00:26:15.607    1,009 kbps      00:26:10.602    3,962 bytes     89,946 bytes    00:20:41.340    
4               0:26:21.413     0:03:29.542     950 kbps        1,423 kbps      00:29:49.320    1,045 kbps      00:29:45.316    997 kbps        00:29:40.311    3,962 bytes     89,946 bytes    00:26:22.380    
5               0:29:50.955     0:08:45.024     950 kbps        1,474 kbps      00:38:34.278    1,055 kbps      00:38:30.274    1,002 kbps      00:38:25.269    3,962 bytes     89,945 bytes    00:29:51.923    
6               0:38:35.980     0:11:29.689     950 kbps        960 kbps        00:38:36.013    952 kbps        00:38:36.013    951 kbps        00:38:36.013    3,962 bytes     89,946 bytes    00:38:36.947    
7               0:50:05.669     0:08:03.349     950 kbps        1,607 kbps      00:58:07.050    1,081 kbps      00:58:03.046    1,016 kbps      00:57:58.041    3,962 bytes     89,946 bytes    00:50:06.636    
8               0:58:09.018     0:07:20.173     950 kbps        1,564 kbps      01:05:27.356    1,073 kbps      01:05:23.352    1,011 kbps      01:05:18.347    3,962 bytes     89,947 bytes    00:58:09.986    
9               1:05:29.191     0:06:38.297     950 kbps        1,607 kbps      01:12:05.487    1,081 kbps      01:12:01.483    1,016 kbps      01:11:56.478    3,962 bytes     89,946 bytes    01:05:30.159    
10              1:12:07.489     0:08:59.238     950 kbps        1,544 kbps      01:21:04.926    1,069 kbps      01:21:00.922    1,009 kbps      01:20:55.917    3,962 bytes     89,946 bytes    01:12:08.457    
11              1:21:06.728     0:03:51.497     950 kbps        1,403 kbps      01:24:56.658    1,041 kbps      01:24:52.654    995 kbps        01:24:47.649    3,962 bytes     89,946 bytes    01:21:07.696    
12              1:24:58.226     0:05:19.318     950 kbps        960 kbps        01:24:58.259    952 kbps        01:24:58.259    951 kbps        01:24:58.259    3,962 bytes     89,947 bytes    01:24:59.194    
13              1:30:17.545     0:06:42.568     950 kbps        1,353 kbps      01:36:58.546    1,031 kbps      01:36:54.542    990 kbps        01:36:49.537    3,962 bytes     89,946 bytes    01:30:18.513    
14              1:37:00.114     0:15:23.656     950 kbps        1,564 kbps      01:52:21.935    1,073 kbps      01:52:17.931    1,011 kbps      01:52:12.926    3,962 bytes     89,946 bytes    01:37:01.081    
15              1:52:23.770     0:10:09.909     950 kbps        1,403 kbps      02:02:32.078    1,041 kbps      02:02:28.074    995 kbps        02:02:23.069    3,962 bytes     89,946 bytes    01:52:24.737    
16              2:02:33.679     0:16:57.016     950 kbps        960 kbps        02:02:33.713    952 kbps        02:02:33.713    951 kbps        02:02:33.713    3,962 bytes     89,947 bytes    02:02:34.647    
17              2:19:30.695     0:06:27.887     950 kbps        1,474 kbps      02:25:56.881    1,055 kbps      02:25:52.877    1,002 kbps      02:25:47.872    3,962 bytes     89,946 bytes    02:19:31.663    
18              2:25:58.583     0:18:02.948     950 kbps        1,607 kbps      02:43:59.563    1,081 kbps      02:43:55.559    1,016 kbps      02:43:50.554    3,962 bytes     89,946 bytes    02:25:59.550    

STREAM DIAGNOSTICS:

File            PID             Type            Codec           Language                Seconds                 Bitrate                 Bytes           Packets         
----            ---             ----            -----           --------                --------------          --------------          -------------   -----           
00000.M2TS      4113 (0x1011)   0x1B            AVC                                     2315.847                950                     275,027,300     1,503,888       
00000.M2TS      4352 (0x1100)   0x83            TrueHD          deu (German)            2315.847                6,068                   1,756,472,746   11,219,330      
00000.M2TS      4353 (0x1101)   0x86            DTS-HD MA       deu (German)            2315.847                12,391                  3,587,059,256   19,855,993      
00000.M2TS      4354 (0x1102)   0x80            LPCM            deu (German)            2315.847                9,223                   2,669,838,688   14,822,144      
00001.M2TS      4113 (0x1011)   0x1B            AVC                                     2011.376                950                     238,870,780     1,306,178       
00001.M2TS      4352 (0x1100)   0x83            TrueHD          deu (German)            2011.376                6,158                   1,548,302,594   9,904,951       
00001.M2TS      4353 (0x1101)   0x86            DTS-HD MA       deu (German)            2011.376                12,526                  3,149,200,012   17,430,803      
00001.M2TS      4354 (0x1102)   0x80            LPCM            deu (German)            2011.376                9,223                   2,318,880,256   12,873,728      
00002.M2TS      4113 (0x1011)   0x1B            AVC                                     1492.491                950                     177,252,144     969,240         
00002.M2TS      4352 (0x1100)   0x83            TrueHD          deu (German)            1492.491                6,233                   1,162,874,638   7,462,626       
00002.M2TS      4353 (0x1101)   0x86            DTS-HD MA       deu (German)            1492.491                12,402                  2,313,825,116   12,808,159      
00002.M2TS      4354 (0x1102)   0x80            LPCM            deu (German)            1492.491                9,223                   1,720,703,864   9,552,832       
00003.M2TS      4113 (0x1011)   0x1B            AVC                                     4021.284                950                     477,551,363     2,611,314       
00003.M2TS      4352 (0x1100)   0x83            TrueHD          deu (German)            4021.284                6,011                   3,021,563,378   19,403,341      
00003.M2TS      4353 (0x1101)   0x86            DTS-HD MA       deu (German)            4021.284                12,721                  6,394,311,320   35,381,584      
00003.M2TS      4354 (0x1102)   0x80            LPCM            deu (German)            4021.284                9,223                   4,635,841,100   25,736,800
Das Interview - Herbert von Karajan im gespräch mit Joachim Kaiser

Code:
QUICK SUMMARY:

Disc Title: DGG_KARAJAN_BEETHOVEN_DISC2
Disc Size: 44,580,758,644 bytes
Protection: AACS
BD-Java: Yes
Playlist: 00001.MPLS
Size: 3,066,734,592 bytes
Length: 0:16:03.996
Total Bitrate: 25.45 Mbps
Video: MPEG-4 AVC Video / 21961 kbps / 1080i / 29.970 fps / 16:9 / High Profile 4.1
Audio: German / LPCM Audio / 2.0 / 48 kHz / 2304 kbps / 24-bit
Karajan in conversation - Herbert von Karajan talks to Richard Osborne (presented in English, not German)

Code:
QUICK SUMMARY:

Disc Title: DGG_KARAJAN_BEETHOVEN_DISC2
Disc Size: 44,580,758,644 bytes
Protection: AACS
BD-Java: Yes
Playlist: 00002.MPLS
Size: 2,493,007,872 bytes
Length: 0:13:33.813
Total Bitrate: 24.51 Mbps
Video: MPEG-4 AVC Video / 21060 kbps / 1080i / 29.970 fps / 16:9 / High Profile 4.1
Audio: German / LPCM Audio / 2.0 / 48 kHz / 2304 kbps / 24-bit
Good stuff.

Thanks McCrutchy!
  Reply With Quote
Old 11-18-2018, 12:45 AM   #5
McCrutchy McCrutchy is online now
Contributor
 
McCrutchy's Avatar
 
Dec 2008
East Coast, USA
2
300
3440
173
5
13
Default

Quote:
Originally Posted by MooneyRara View Post
Good stuff.

Thanks McCrutchy!
Happy to help.
  Reply With Quote
Old 11-20-2018, 02:22 AM   #6
Dubstar Dubstar is offline
Blu-ray Baron
 
Dubstar's Avatar
 
Jun 2008
down at Fraggle Rock
1
133
1771
295
2
7
6
Default

Quote:
Originally Posted by bigshot View Post
I'm assuming that this is remixed. Does the mix correct the bizarre balance issues and spotlighting in the original stereo mix? The performances on these were good, but the mix was bizarre at times.
'bizarre' mix = immersive object based audio Atmos mixing

(I'm now intrigued)
  Reply With Quote
Old 11-20-2018, 04:53 PM   #7
bigshot bigshot is offline
Blu-ray Ninja
 
bigshot's Avatar
 
Aug 2010
12
82
3
2
Default

The 70s Karajan recordings were widely criticized for their over produced sound. Karajan wanted to multi-mike everything and goose the orchestral perspective and level in the mix. They don't sound like a real orchestra playing in a real venue. With Karajan dead and gone, did they go back and mix it without all the noodling? That would be my guess. It would improve these recordings immensely. The Eroica is a very good performance.
  Reply With Quote
Old 11-20-2018, 09:02 PM   #8
Dubstar Dubstar is offline
Blu-ray Baron
 
Dubstar's Avatar
 
Jun 2008
down at Fraggle Rock
1
133
1771
295
2
7
6
Default

so is describing the soundmix like Disney was trying to do with Fantasound for 'Fantasia' with a lot of panning of sound.
  Reply With Quote
Old 01-10-2019, 11:04 PM   #9
bigshot bigshot is offline
Blu-ray Ninja
 
bigshot's Avatar
 
Aug 2010
12
82
3
2
Default

I got this yesterday. Hopefully I'll have time to sample it this weekend.
  Reply With Quote
Old 01-18-2019, 03:23 PM   #10
bigshot bigshot is offline
Blu-ray Ninja
 
bigshot's Avatar
 
Aug 2010
12
82
3
2
Default

A big disappointment. The track labelled 5.1 didn't have any sound coming out of the center or rears. The one labelled Atmos did have sound there, but it was just reverb. I had hoped this would be a new mix, but it appears to be just an upscaled stereo mix. Save your money on this one. The CDs sound pretty much the same.
  Reply With Quote
Reply
Go Back   Blu-ray Forum > Audio > Music / Audiophiles > Blu-ray Music and High Quality Music


Thread Tools
Display Modes

Posting Rules
You may not post new threads
You may not post replies
You may not post attachments
You may not edit your posts

BB code is On
Smilies are On
[IMG] code is On
HTML code is Off

Forum Jump


All times are GMT. The time now is 05:00 AM.