Best Blu-ray Movie Deals


Best Blu-ray Movie Deals, See All the Deals »
Top deals | New deals  
 All countries United States United Kingdom Canada Germany France Spain Italy Australia Netherlands Japan Mexico
Short Circuit 2 (Blu-ray)
$5.99
3 hrs ago
The Prestige 4K (Blu-ray)
$22.99
1 day ago
Rita Hayworth: Ultimate Collection (Blu-ray)
$18.99
1 hr ago
John Wick: Chapters 1-3 4K (Blu-ray)
$25.60
 
Runaway Train (Blu-ray)
$19.99
14 hrs ago
The Golden Child (Blu-ray)
$16.99
11 hrs ago
Monster Hunter 4K (Blu-ray)
$24.99
 
Log Horizon: Complete Collection (Blu-ray)
$48.99
1 hr ago
Wonder Woman 1984 3D (Blu-ray)
$28.99
 
Ultraman Taro: The Complete Series (Blu-ray)
$23.99
7 hrs ago
My Hero Academia: Season Four: Part Two (Blu-ray)
$33.99
 
Ultraman Leo: The Complete Series (Blu-ray)
$42.99
1 day ago
What's your next favorite movie?
Join our movie community to find out


Image from: Life of Pi (2012)
Old 11-02-2020, 11:59 PM   #1
McCrutchy McCrutchy is online now
Contributor
 
McCrutchy's Avatar
 
Dec 2008
East Coast, USA
2
471
4523
191
5
14
Denmark Silent Heart (2014)



SF Studios have released Bille August's Silent Heart (Stille Hjerte) (2014) with English subtitles.
  Reply With Quote
Old 11-03-2020, 12:13 AM   #2
McCrutchy McCrutchy is online now
Contributor
 
McCrutchy's Avatar
 
Dec 2008
East Coast, USA
2
471
4523
191
5
14
Default



BDInfo scan:

This disc is English-friendly, including the menus, however, even though the extras are available in the English menu, and have had their titles translated into English, none have English subtitles.

Code:
                                                                                                                Total   Video                                             
Title                                                           Codec   Length  Movie Size      Disc Size       Bitrate Bitrate Main Audio Track                          Secondary Audio Track
-----                                                           ------  ------- --------------  --------------  ------- ------- ------------------                        ---------------------
00000.MPLS                                                      AVC     1:38:19 19,608,674,304  24,861,721,398  26.59   21.00   DTS-HD Master 5.1 3371Kbps (48kHz/24-bit)
Code:
DISC INFO:

Disc Label:     STILLE HJERTE
Disc Size:      24,861,721,398 bytes
Protection:     AACS
Extras:         50Hz Content
BDInfo:         0.7.5.5

PLAYLIST REPORT:

Name:                   00000.MPLS
Length:                 1:38:19.791 (h:m:s.ms)
Size:                   19,608,674,304 bytes
Total Bitrate:          26.59 Mbps

VIDEO:

Codec                   Bitrate             Description     
-----                   -------             -----------     
MPEG-4 AVC Video        21002 kbps          1080p / 24 fps / 16:9 / High Profile 4.1

AUDIO:

Codec                           Language        Bitrate         Description     
-----                           --------        -------         -----------     
DTS-HD Master Audio             Danish          3371 kbps       5.1 / 48 kHz /  3371 kbps / 24-bit (DTS Core: 5.1 / 48 kHz /  1509 kbps / 24-bit)
Dolby Digital Audio             Danish          640 kbps        2.0 / 48 kHz /   640 kbps / DN -31dB

SUBTITLES:

Codec                           Language        Bitrate         Description     
-----                           --------        -------         -----------     
Presentation Graphics           Danish          24.420 kbps                     
Presentation Graphics           Finnish         19.217 kbps                     
Presentation Graphics           Norwegian       23.056 kbps                     
Presentation Graphics           Swedish         23.076 kbps                     
Presentation Graphics           English         21.618 kbps                     

FILES:

Name            Time In         Length          Size            Total Bitrate   
----            -------         ------          ----            -------------   
00000.M2TS      0:00:00.000     1:38:18.791     19,603,439,616  26,586          
00011.M2TS      1:38:18.791     0:00:01.000     5,234,688       41,878          

CHAPTERS:

Number          Time In         Length          Avg Video Rate  Max 1-Sec Rate  Max 1-Sec Time  Max 5-Sec Rate  Max 5-Sec Time  Max 10Sec Rate  Max 10Sec Time  Avg Frame Size  Max Frame Size  Max Frame Time  
------          -------         ------          --------------  --------------  --------------  --------------  --------------  --------------  --------------  --------------  --------------  --------------  
1               0:00:00.000     0:08:18.166     21,847 kbps     52,918 kbps     00:08:02.416    36,598 kbps     00:08:01.541    32,065 kbps     00:08:01.500    113,774 bytes   729,470 bytes   00:01:27.208    
2               0:08:18.166     0:10:19.291     23,204 kbps     36,549 kbps     00:14:13.541    33,686 kbps     00:14:11.666    32,218 kbps     00:17:56.791    120,856 bytes   456,989 bytes   00:11:32.875    
3               0:18:37.458     0:08:16.458     22,510 kbps     49,807 kbps     00:24:51.249    40,529 kbps     00:24:51.250    35,829 kbps     00:26:35.124    117,241 bytes   671,291 bytes   00:26:38.666    
4               0:26:53.916     0:08:43.208     24,718 kbps     38,372 kbps     00:32:58.958    34,911 kbps     00:33:27.583    32,906 kbps     00:33:27.416    128,741 bytes   571,745 bytes   00:27:30.125    
5               0:35:37.125     0:09:49.375     24,327 kbps     35,506 kbps     00:36:01.041    31,322 kbps     00:42:45.250    31,224 kbps     00:42:43.708    126,704 bytes   473,962 bytes   00:40:07.416    
6               0:45:26.500     0:09:27.333     17,663 kbps     32,401 kbps     00:53:13.750    30,405 kbps     00:53:11.666    30,278 kbps     00:53:06.250    91,996 bytes    470,886 bytes   00:50:04.916    
7               0:54:53.833     0:08:20.249     17,319 kbps     32,004 kbps     00:59:18.500    28,587 kbps     00:55:57.083    28,734 kbps     00:55:52.083    90,201 bytes    602,814 bytes   00:59:55.333    
8               1:03:14.083     0:08:56.666     22,372 kbps     42,996 kbps     01:08:06.125    35,837 kbps     01:08:05.458    32,115 kbps     01:04:16.750    116,519 bytes   661,158 bytes   01:08:07.166    
9               1:12:10.750     0:14:40.125     22,397 kbps     42,204 kbps     01:17:02.666    35,082 kbps     01:16:40.541    32,122 kbps     01:16:35.916    116,652 bytes   648,169 bytes   01:12:55.541    
10              1:26:50.875     0:11:28.916     14,236 kbps     38,402 kbps     01:38:18.708    31,987 kbps     01:26:51.041    31,154 kbps     01:26:51.333    74,149 bytes    533,466 bytes   01:34:37.583    

STREAM DIAGNOSTICS:

File            PID             Type            Codec           Language                Seconds                 Bitrate                 Bytes           Packets         
----            ---             ----            -----           --------                --------------          --------------          -------------   -----           
00000.M2TS      4113 (0x1011)   0x1B            AVC                                     5898.708                20,999                  15,483,737,651  84,232,852      
00000.M2TS      4352 (0x1100)   0x86            DTS-HD MA       dan (Danish)            5898.708                3,372                   2,486,092,268   14,431,802      
00000.M2TS      4353 (0x1101)   0x81            AC3             dan (Danish)            5898.708                640                     471,902,720     2,765,055       
00000.M2TS      4608 (0x1200)   0x90            PGS             dan (Danish)            5898.708                24                      18,008,808      103,685         
00000.M2TS      4609 (0x1201)   0x90            PGS             fin (Finnish)           5898.708                19                      14,171,823      81,451          
00000.M2TS      4610 (0x1202)   0x90            PGS             nor (Norwegian)         5898.708                23                      17,003,425      98,170          
00000.M2TS      4611 (0x1203)   0x90            PGS             swe (Swedish)           5898.708                23                      17,018,136      98,251          
00000.M2TS      4612 (0x1204)   0x90            PGS             eng (English)           5898.708                22                      15,942,770      92,350          
00011.M2TS      4113 (0x1011)   0x1B            AVC                                     0.875                   45,714                  4,999,962       27,192
Interview with Bille August

Code:
QUICK SUMMARY:

Disc Label: STILLE HJERTE
Disc Size: 24,861,721,398 bytes
Protection: AACS
Playlist: 00004.MPLS
Size: 382,175,232 bytes
Length: 0:06:10.875
Total Bitrate: 8.24 Mbps
Video: MPEG-4 AVC Video / 7417 kbps / 1080p / 24 fps / 16:9 / High Profile 4.1
Audio: Danish / Dolby Digital Audio / 2.0 / 48 kHz /   384 kbps / DN -31dB
Behind the Scenes: A Documentary on the Making of Silent Heart

Code:
                                                                                                                Total   Video                                             
Title                                                           Codec   Length  Movie Size      Disc Size       Bitrate Bitrate Main Audio Track                          Secondary Audio Track
-----                                                           ------  ------- --------------  --------------  ------- ------- ------------------                        ---------------------
00005.MPLS                                                      AVC     0:20:22 1,675,075,584   24,861,721,398  10.97   10.03   DD AC3 2.0 384Kbps
Code:
DISC INFO:

Disc Label:     STILLE HJERTE
Disc Size:      24,861,721,398 bytes
Protection:     AACS
Extras:         50Hz Content
BDInfo:         0.7.5.5

PLAYLIST REPORT:

Name:                   00005.MPLS
Length:                 0:20:22.041 (h:m:s.ms)
Size:                   1,675,075,584 bytes
Total Bitrate:          10.97 Mbps

VIDEO:

Codec                   Bitrate             Description     
-----                   -------             -----------     
MPEG-4 AVC Video        10025 kbps          1080p / 24 fps / 16:9 / High Profile 4.1

AUDIO:

Codec                           Language        Bitrate         Description     
-----                           --------        -------         -----------     
Dolby Digital Audio             Danish          384 kbps        2.0 / 48 kHz /   384 kbps / DN -27dB

FILES:

Name            Time In         Length          Size            Total Bitrate   
----            -------         ------          ----            -------------   
00008.M2TS      0:00:00.000     0:20:21.041     1,669,840,896   10,940          
00011.M2TS      0:20:21.041     0:00:01.000     5,234,688       41,878          

CHAPTERS:

Number          Time In         Length          Avg Video Rate  Max 1-Sec Rate  Max 1-Sec Time  Max 5-Sec Rate  Max 5-Sec Time  Max 10Sec Rate  Max 10Sec Time  Avg Frame Size  Max Frame Size  Max Frame Time  
------          -------         ------          --------------  --------------  --------------  --------------  --------------  --------------  --------------  --------------  --------------  --------------  
1               0:00:00.000     0:09:59.875     9,840 kbps      22,721 kbps     00:02:31.416    19,683 kbps     00:02:29.375    17,882 kbps     00:09:02.791    51,247 bytes    443,352 bytes   00:02:30.458    
2               0:09:59.875     0:10:22.166     10,203 kbps     38,402 kbps     00:20:20.958    23,684 kbps     00:13:51.208    18,813 kbps     00:13:49.250    53,146 bytes    525,309 bytes   00:13:54.208    

STREAM DIAGNOSTICS:

File            PID             Type            Codec           Language                Seconds                 Bitrate                 Bytes           Packets         
----            ---             ----            -----           --------                --------------          --------------          -------------   -----           
00008.M2TS      4113 (0x1011)   0x1B            AVC                                     1220.958                10,001                  1,526,377,613   8,312,711       
00008.M2TS      4352 (0x1100)   0x81            AC3             dan (Danish)            1220.958                384                     58,610,688      343,422         
00011.M2TS      4113 (0x1011)   0x1B            AVC                                     0.875                   45,714                  4,999,962       27,192
On Set: Meet the Director, Stars and Crew

Code:
                                                                                                                Total   Video                                             
Title                                                           Codec   Length  Movie Size      Disc Size       Bitrate Bitrate Main Audio Track                          Secondary Audio Track
-----                                                           ------  ------- --------------  --------------  ------- ------- ------------------                        ---------------------
00007.MPLS                                                      AVC     0:29:11 2,398,746,624   24,861,721,398  10.96   10.02   DD AC3 2.0 384Kbps
Code:
DISC INFO:

Disc Label:     STILLE HJERTE
Disc Size:      24,861,721,398 bytes
Protection:     AACS
Extras:         50Hz Content
BDInfo:         0.7.5.5

PLAYLIST REPORT:

Name:                   00007.MPLS
Length:                 0:29:11.250 (h:m:s.ms)
Size:                   2,398,746,624 bytes
Total Bitrate:          10.96 Mbps

VIDEO:

Codec                   Bitrate             Description     
-----                   -------             -----------     
MPEG-4 AVC Video        10017 kbps          1080p / 24 fps / 16:9 / High Profile 4.1

AUDIO:

Codec                           Language        Bitrate         Description     
-----                           --------        -------         -----------     
Dolby Digital Audio             Danish          384 kbps        2.0 / 48 kHz /   384 kbps / DN -31dB

FILES:

Name            Time In         Length          Size            Total Bitrate   
----            -------         ------          ----            -------------   
00010.M2TS      0:00:00.000     0:29:10.250     2,393,511,936   10,940          
00011.M2TS      0:29:10.250     0:00:01.000     5,234,688       41,878          

CHAPTERS:

Number          Time In         Length          Avg Video Rate  Max 1-Sec Rate  Max 1-Sec Time  Max 5-Sec Rate  Max 5-Sec Time  Max 10Sec Rate  Max 10Sec Time  Avg Frame Size  Max Frame Size  Max Frame Time  
------          -------         ------          --------------  --------------  --------------  --------------  --------------  --------------  --------------  --------------  --------------  --------------  
1               0:00:00.000     0:09:59.958     7,231 kbps      17,578 kbps     00:00:20.249    16,480 kbps     00:00:19.500    16,402 kbps     00:00:18.249    37,659 bytes    221,930 bytes   00:00:36.791    
2               0:09:59.958     0:09:59.833     10,296 kbps     20,184 kbps     00:11:43.500    18,026 kbps     00:11:43.416    16,467 kbps     00:11:39.500    53,624 bytes    199,699 bytes   00:11:45.541    
3               0:19:59.791     0:09:11.458     12,746 kbps     38,419 kbps     00:29:10.166    21,210 kbps     00:27:30.541    21,083 kbps     00:27:30.458    66,391 bytes    312,660 bytes   00:23:14.375    

STREAM DIAGNOSTICS:

File            PID             Type            Codec           Language                Seconds                 Bitrate                 Bytes           Packets         
----            ---             ----            -----           --------                --------------          --------------          -------------   -----           
00010.M2TS      4113 (0x1011)   0x1B            AVC                                     1750.167                10,001                  2,187,882,861   11,915,301      
00010.M2TS      4352 (0x1100)   0x81            AC3             dan (Danish)            1750.167                384                     84,011,520      492,255         
00011.M2TS      4113 (0x1011)   0x1B            AVC                                     0.875                   45,714                  4,999,962       27,192
Trailer

Code:
QUICK SUMMARY:

Disc Label: STILLE HJERTE
Disc Size: 24,861,721,398 bytes
Protection: AACS
Playlist: 00006.MPLS
Size: 216,342,528 bytes
Length: 0:02:32.041
Total Bitrate: 11.38 Mbps
Video: MPEG-4 AVC Video / 10153 kbps / 1080p / 24 fps / 16:9 / High Profile 4.1
Audio: Danish / Dolby Digital Audio / 5.1 / 48 kHz /   640 kbps / DN -27dB
Attached Images
File Type: jpg STILLE_HJERTE-00000-bitrate-01s.jpg (19.7 KB, 0 views)
File Type: jpg STILLE_HJERTE-00004-bitrate-01s.jpg (18.9 KB, 0 views)
File Type: jpg STILLE_HJERTE-00005-bitrate-01s.jpg (17.2 KB, 0 views)
File Type: jpg STILLE_HJERTE-00007-bitrate-01s.jpg (18.5 KB, 0 views)
File Type: jpg STILLE_HJERTE-00006-bitrate-01s.jpg (17.3 KB, 0 views)
  Reply With Quote
Reply
Go Back   Blu-ray Forum > Movies > Blu-ray Movies - International > Scandinavia


Thread Tools
Display Modes

Posting Rules
You may not post new threads
You may not post replies
You may not post attachments
You may not edit your posts

BB code is On
Smilies are On
[IMG] code is On
HTML code is Off

Forum Jump


All times are GMT. The time now is 07:09 PM.