Best Blu-ray Movie Deals


Best Blu-ray Movie Deals, See All the Deals »
Top deals | New deals  
 All countries United States United Kingdom Canada Germany France Spain Italy Australia Netherlands Japan Mexico
Black Panther: Wakanda Forever 4K (Blu-ray)
AU$36.98
 
Black Panther: Wakanda Forever 4K (Blu-ray)
AU$44.00
4 hrs ago
Don't Worry Darling 4K (Blu-ray)
AU$32.95
 
My Fair Lady (Blu-ray)
AU$6.50
 
Highlander (Blu-ray)
AU$6.50
 
Knightfall: Season One (Blu-ray)
AU$5.00
 
Bill & Ted's Excellent Adventure (Blu-ray)
AU$6.50
 
The Menu (Blu-ray)
AU$29.98
 
Bone Tomahawk (Blu-ray)
AU$6.50
 
Bones and All (Blu-ray)
AU$26.98
 
Chinatown (Blu-ray)
AU$6.50
 
The Devil Wears Prada (Blu-ray)
AU$3.99
 
What's your next favorite movie?
Join our movie community to find out


Image from: Life of Pi (2012)
Old 07-03-2020, 01:13 PM   #21
drush9999 drush9999 is offline
Blu-ray Champion
 
drush9999's Avatar
 
Nov 2016
Sutton Coldfield, England
81
3953
521
1
Default

Quote:
Originally Posted by Alister_M View Post
Now if there's any BD that needs a reissue it's that one. I've only ever owned it as an ex-rental VHS, at this rate I may as well just get a copy of the US DVD just so I can see it in widescreen for the first time
Could do with a better transfer as well.
Being a Disney title chances are zero of either at the present

Just glad I managed to snag a copy.
  Reply With Quote
Old 07-04-2020, 02:10 AM   #22
Alister_M Alister_M is offline
Blu-ray Archduke
 
Alister_M's Avatar
 
Feb 2016
233
1648
19
14
5
Default

Quote:
Originally Posted by drush9999 View Post
Could do with a better transfer as well.
Being a Disney title chances are zero of either at the present

Just glad I managed to snag a copy.
Looks like the R1 DVD is just as OOP as the BD. So I just grabbed an R2 UK one locally, guess I'll just have to put up with the ol' PAL speedup.
  Reply With Quote
Old 07-04-2020, 03:28 AM   #23
g12345567 g12345567 is offline
Senior Member
 
Jun 2012
Sydney Australia
6
728
150
6
Default

Quote:
Originally Posted by drush9999 View Post
Could do with a better transfer as well.

Just glad I managed to snag a copy.
Can't believe I purchased this for only $7 way back on 3rd March 2017. Looking at the crazy prices for this on Ebay ($155, $180 & $500) and people are buying (2 sold). Although most unsold at these high prices. Although 3 unsold back in April were around $40.

Best bet to finding this might be to call JB Hifi and get them to check there computer to see if any stores might still have stock.

Last edited by g12345567; 07-05-2020 at 02:49 AM.
  Reply With Quote
Old 07-04-2020, 04:54 AM   #24
LMFAObros LMFAObros is offline
Blu-ray Guru
 
LMFAObros's Avatar
 
Jan 2016
Melbourne, North Korea
258
3434
1
73
10
Default

Quote:
Originally Posted by g12345567 View Post
Can't believe I purchased this for only $7 way back on 3rd March 2017. Looking at the prices for this on Ebay ($155, $180 & $500) and people are buying (2 sold). With most unsold at these high prices. Although 3 unsold back in April were around $40.

Best bet to finding this might be to call JB Hifi and get them to check there computer to see if any stores might still have stock.
Yeah. I was lucky enough to be able to order a copy in and pay for it during the B1G1F sale.
  Reply With Quote
Old 07-04-2020, 05:24 AM   #25
Alister_M Alister_M is offline
Blu-ray Archduke
 
Alister_M's Avatar
 
Feb 2016
233
1648
19
14
5
Default

The conversation before the last two posts was actually in regards to Dogma, not Splash Though it certainly is amusing that Splash is also going for absurdly stupid prices on the usual scalping venues.
  Reply With Quote
Old 08-12-2020, 01:58 PM   #26
McCrutchy McCrutchy is online now
Contributor
 
McCrutchy's Avatar
 
Dec 2008
East Coast, USA
2
701
5128
200
5
16
Default

I'm sorry to be that person, but is it still possible for someone outside of Australia to find a reasonably priced copy of this, if not sealed, then like new? The copies on eBay are still going for outrageous prices.
  Reply With Quote
Old 08-12-2020, 02:43 PM   #27
LMFAObros LMFAObros is offline
Blu-ray Guru
 
LMFAObros's Avatar
 
Jan 2016
Melbourne, North Korea
258
3434
1
73
10
Default

Quote:
Originally Posted by McCrutchy View Post
I'm sorry to be that person, but is it still possible for someone outside of Australia to find a reasonably priced copy of this, if not sealed, then like new? The copies on eBay are still going for outrageous prices.
Under normal circumstances I or another member from the forum would be able to order you a copy into our local JB but they aren't doing transfers(at least not in vic)
  Reply With Quote
Old 08-12-2020, 02:49 PM   #28
McCrutchy McCrutchy is online now
Contributor
 
McCrutchy's Avatar
 
Dec 2008
East Coast, USA
2
701
5128
200
5
16
Default

Quote:
Originally Posted by LMFAObros View Post
Under normal circumstances I or another member from the forum would be able to order you a copy into our local JB but they aren't doing transfers(at least not in vic)
Are there even copies still available in any JB HI-FI store? They don't sell used copies, do they?
  Reply With Quote
Old 08-12-2020, 03:50 PM   #29
Aunt Peg Aunt Peg is offline
Blu-ray Ninja
 
Aunt Peg's Avatar
 
May 2013
Sydney
7
3725
568
Default

Quote:
Originally Posted by McCrutchy View Post
Are there even copies still available in any JB HI-FI store? They don't sell used copies, do they?
I just checked JB's site and they didn't have Splash in stock. Neither to ezydvd so I suspect it is out of print.
  Reply With Quote
Old 08-12-2020, 08:13 PM   #30
SillyG SillyG is offline
Expert Member
 
Aug 2019
Sydney, Australia
28
184
21
Default

Quote:
Originally Posted by McCrutchy View Post
They don't sell used copies, do they?
The only used merchandise that JB sells are games, not movies/TV.
  Reply With Quote
Old 08-14-2020, 08:14 PM   #31
McCrutchy McCrutchy is online now
Contributor
 
McCrutchy's Avatar
 
Dec 2008
East Coast, USA
2
701
5128
200
5
16
Default

Quote:
Originally Posted by Aunt Peg View Post
I just checked JB's site and they didn't have Splash in stock. Neither to ezydvd so I suspect it is out of print.
Quote:
Originally Posted by SillyG View Post
The only used merchandise that JB sells are games, not movies/TV.
Thanks for the info and clarification, guys.

I bought an apparently sealed copy on eBay, so hopefully it's the genuine article. Now watch Kino announce it as a licensed title in the US in six months or less.

  Reply With Quote
Old 09-03-2020, 12:04 AM   #32
McCrutchy McCrutchy is online now
Contributor
 
McCrutchy's Avatar
 
Dec 2008
East Coast, USA
2
701
5128
200
5
16
Default

A little bit late, but here goes:



English subtitles are SDH for the main feature and SDH for the audio commentary.

The commentary is available from both the Bonus Features and Languages menus, but if you select it from the Bonus Features menu, you have the option of watching the commentary with a video introduction and a short outro from the filmmakers. The option is not available if the commentary is selected from the Languages menu.

All subtitling is in white font, the main feature and commentary subtitles are HD format, while the video extras have smaller, thinner SD format subtitles.

Code:
                                                                                                                Total   Video                                             
Title                                                           Codec   Length  Movie Size      Disc Size       Bitrate Bitrate Main Audio Track                          Secondary Audio Track
-----                                                           ------  ------- --------------  --------------  ------- ------- ------------------                        ---------------------
00800.MPLS                                                      AVC     1:49:47 27,188,895,744  31,593,935,460  33.02   25.99   DTS-HD Master 5.1 3549Kbps (48kHz/24-bit)
Code:
DISC INFO:

Disc Title:     Splash - Blu-ray™
Disc Label:     SPLASH
Disc Size:      31,593,935,460 bytes
Protection:     AACS
Extras:         BD-Java
BDInfo:         0.7.5.5

PLAYLIST REPORT:

Name:                   00800.MPLS
Length:                 1:49:47.205 (h:m:s.ms)
Size:                   27,188,895,744 bytes
Total Bitrate:          33.02 Mbps

VIDEO:

Codec                   Bitrate             Description     
-----                   -------             -----------     
MPEG-4 AVC Video        25990 kbps          1080p / 23.976 fps / 16:9 / High Profile 4.1

AUDIO:

Codec                           Language        Bitrate         Description     
-----                           --------        -------         -----------     
DTS-HD Master Audio             English         3549 kbps       5.1 / 48 kHz /  3549 kbps / 24-bit (DTS Core: 5.1 / 48 kHz /  1509 kbps / 24-bit)
Dolby Digital Audio             French          640 kbps        5.1 / 48 kHz /   640 kbps / DN -31dB
Dolby Digital Audio             Spanish         320 kbps        2.0 / 48 kHz /   320 kbps / DN -31dB
Dolby Digital Audio             English         320 kbps        2.0 / 48 kHz /   320 kbps / DN -31dB

SUBTITLES:

Codec                           Language        Bitrate         Description     
-----                           --------        -------         -----------     
Presentation Graphics           English         33.224 kbps                     
Presentation Graphics           French          24.581 kbps                     
Presentation Graphics           Spanish         31.920 kbps                     
Presentation Graphics           Portuguese      29.002 kbps                     
Presentation Graphics           English         75.713 kbps                     
Presentation Graphics           French          59.366 kbps                     
Presentation Graphics           Spanish         57.005 kbps                     
Presentation Graphics           Portuguese      49.574 kbps                     
Presentation Graphics           French          0.146 kbps                      
Presentation Graphics           Spanish         0.195 kbps                      

FILES:

Name            Time In         Length          Size            Total Bitrate   
----            -------         ------          ----            -------------   
00800.M2TS      0:00:00.000     1:49:47.205     27,188,895,744  33,020          

CHAPTERS:

Number          Time In         Length          Avg Video Rate  Max 1-Sec Rate  Max 1-Sec Time  Max 5-Sec Rate  Max 5-Sec Time  Max 10Sec Rate  Max 10Sec Time  Avg Frame Size  Max Frame Size  Max Frame Time  
------          -------         ------          --------------  --------------  --------------  --------------  --------------  --------------  --------------  --------------  --------------  --------------  
1               0:00:00.000     0:01:53.863     21,962 kbps     30,791 kbps     00:00:03.461    24,817 kbps     00:00:48.381    24,340 kbps     00:00:45.795    114,459 bytes   207,399 bytes   00:00:04.170    
2               0:01:53.863     0:02:34.654     29,156 kbps     35,098 kbps     00:04:25.515    33,817 kbps     00:02:02.664    33,249 kbps     00:02:00.328    152,003 bytes   229,608 bytes   00:04:26.975    
3               0:04:28.518     0:09:03.042     26,145 kbps     31,236 kbps     00:05:59.692    30,248 kbps     00:05:58.399    30,075 kbps     00:05:58.399    136,309 bytes   289,984 bytes   00:10:00.266    
4               0:13:31.560     0:03:37.300     24,357 kbps     28,932 kbps     00:16:07.049    26,713 kbps     00:13:38.984    26,497 kbps     00:13:33.687    126,984 bytes   237,716 bytes   00:17:08.861    
5               0:17:08.861     0:06:03.613     27,296 kbps     34,754 kbps     00:22:26.136    32,600 kbps     00:21:47.389    30,853 kbps     00:22:21.548    142,309 bytes   235,477 bytes   00:18:05.626    
6               0:23:12.474     0:08:23.794     25,455 kbps     32,703 kbps     00:28:09.688    31,015 kbps     00:28:07.936    30,220 kbps     00:28:08.061    132,709 bytes   318,701 bytes   00:28:01.471    
7               0:31:36.269     0:05:25.658     25,991 kbps     31,568 kbps     00:31:42.901    30,561 kbps     00:31:42.066    29,999 kbps     00:33:48.943    135,508 bytes   280,725 bytes   00:36:28.352    
8               0:37:01.928     0:09:55.136     26,488 kbps     33,537 kbps     00:42:51.652    32,112 kbps     00:42:48.274    31,435 kbps     00:42:43.269    138,096 bytes   275,527 bytes   00:42:31.006    
9               0:46:57.064     0:07:25.236     26,139 kbps     34,954 kbps     00:50:51.882    33,508 kbps     00:50:37.576    32,679 kbps     00:50:37.576    136,275 bytes   300,277 bytes   00:50:52.841    
10              0:54:22.300     0:02:18.721     22,331 kbps     24,887 kbps     00:56:04.736    24,259 kbps     00:56:03.735    24,046 kbps     00:56:03.777    116,422 bytes   359,766 bytes   00:56:40.814    
11              0:56:41.022     0:04:12.126     26,579 kbps     33,385 kbps     00:57:30.405    31,387 kbps     00:56:41.773    31,236 kbps     00:56:43.983    138,568 bytes   294,944 bytes   01:00:35.757    
12              1:00:53.149     0:03:51.105     26,716 kbps     34,278 kbps     01:04:19.313    33,412 kbps     01:04:17.770    33,209 kbps     01:04:15.268    139,284 bytes   303,053 bytes   01:02:22.989    
13              1:04:44.255     0:05:53.061     25,661 kbps     32,044 kbps     01:10:33.854    30,357 kbps     01:08:51.335    29,760 kbps     01:09:08.686    133,786 bytes   309,061 bytes   01:06:31.278    
14              1:10:37.316     0:07:45.423     25,300 kbps     33,876 kbps     01:12:19.918    30,498 kbps     01:18:16.900    29,129 kbps     01:18:12.479    131,903 bytes   299,784 bytes   01:15:12.758    
15              1:18:22.739     0:04:32.855     26,918 kbps     37,006 kbps     01:19:04.781    33,786 kbps     01:18:48.974    33,356 kbps     01:18:48.181    140,340 bytes   327,410 bytes   01:19:44.404    
16              1:22:55.595     0:08:26.088     25,975 kbps     31,858 kbps     01:28:06.906    29,866 kbps     01:24:11.504    29,287 kbps     01:24:06.416    135,420 bytes   307,502 bytes   01:23:36.386    
17              1:31:21.684     0:05:36.085     25,471 kbps     32,280 kbps     01:36:03.799    31,684 kbps     01:35:59.795    30,900 kbps     01:35:57.334    132,792 bytes   256,509 bytes   01:33:30.438    
18              1:36:57.770     0:04:50.164     26,734 kbps     34,756 kbps     01:39:02.478    32,163 kbps     01:38:20.477    31,787 kbps     01:38:17.600    139,377 bytes   326,505 bytes   01:40:06.834    
19              1:41:47.935     0:03:20.700     26,136 kbps     34,845 kbps     01:44:51.535    33,298 kbps     01:44:51.118    31,618 kbps     01:44:49.533    136,259 bytes   288,069 bytes   01:42:28.100    
20              1:45:08.635     0:04:38.569     25,934 kbps     32,051 kbps     01:45:54.973    29,529 kbps     01:45:52.387    29,196 kbps     01:48:09.274    135,226 bytes   287,593 bytes   01:48:10.859    

STREAM DIAGNOSTICS:

File            PID             Type            Codec           Language                Seconds                 Bitrate                 Bytes           Packets         
----            ---             ----            -----           --------                --------------          --------------          -------------   -----           
00800.M2TS      4113 (0x1011)   0x1B            AVC                                     6587.039                25,991                  21,400,181,989  116,397,591     
00800.M2TS      4352 (0x1100)   0x86            DTS-HD MA       eng (English)           6587.039                3,549                   2,922,266,272   16,909,863      
00800.M2TS      4353 (0x1101)   0x81            AC3             fra (French)            6587.039                640                     526,978,560     3,087,765       
00800.M2TS      4354 (0x1102)   0x81            AC3             spa (Spanish)           6587.039                320                     263,489,280     1,646,808       
00800.M2TS      4355 (0x1103)   0x81            AC3             eng (English)           6587.039                320                     263,489,280     1,646,808       
00800.M2TS      4608 (0x1200)   0x90            PGS             eng (English)           6587.039                33                      27,356,925      158,596         
00800.M2TS      4609 (0x1201)   0x90            PGS             fra (French)            6587.039                25                      20,240,139      117,241         
00800.M2TS      4610 (0x1202)   0x90            PGS             spa (Spanish)           6587.039                32                      26,283,269      150,922         
00800.M2TS      4611 (0x1203)   0x90            PGS             por (Portuguese)        6587.039                29                      23,879,928      137,651         
00800.M2TS      4612 (0x1204)   0x90            PGS             eng (English)           6587.039                76                      62,341,786      353,986         
00800.M2TS      4613 (0x1205)   0x90            PGS             fra (French)            6587.039                59                      48,881,992      279,891         
00800.M2TS      4614 (0x1206)   0x90            PGS             spa (Spanish)           6587.039                57                      46,938,342      266,594         
00800.M2TS      4615 (0x1207)   0x90            PGS             por (Portuguese)        6587.039                50                      40,819,192      232,807         
00800.M2TS      4616 (0x1208)   0x90            PGS             fra (French)            6587.039                0                       119,898         693             
00800.M2TS      4617 (0x1209)   0x90            PGS             spa (Spanish)           6587.039                0                       160,922         922
Video Intro to Audio Commentary

Code:
QUICK SUMMARY:

Disc Title: Splash - Blu-ray™
Disc Label: SPLASH
Disc Size: 31,593,935,460 bytes
Protection: AACS
Playlist: 00306.MPLS
Size: 264,112,128 bytes
Length: 0:03:32.045
Total Bitrate: 9.96 Mbps
Video: MPEG-4 AVC Video / 8996 kbps / 480i / 29.970 fps / 4:3 / High Profile 4.1
Audio: English / Dolby Digital Audio / 2.0 / 48 kHz /   320 kbps / DN -31dB
Subtitle: English / 25.424 kbps
Subtitle: French / 23.163 kbps
Subtitle: Spanish / 25.841 kbps
Subtitle: Portuguese / 23.016 kbps
Video Outro to Audio Commentary

Code:
QUICK SUMMARY:

Disc Title: Splash - Blu-ray™
Disc Label: SPLASH
Disc Size: 31,593,935,460 bytes
Protection: AACS
Playlist: 00307.MPLS
Size: 24,582,144 bytes
Length: 0:00:19.786
Total Bitrate: 9.94 Mbps
Video: MPEG-4 AVC Video / 8997 kbps / 480i / 29.970 fps / 4:3 / High Profile 4.1
Audio: English / Dolby Digital Audio / 2.0 / 48 kHz /   320 kbps / DN -31dB
Subtitle: English / 17.863 kbps
Subtitle: French / 16.019 kbps
Subtitle: Spanish / 19.957 kbps
Subtitle: Portuguese / 16.765 kbps
Documentary: Making a Splash

Code:
                                                                                                                Total   Video                                             
Title                                                           Codec   Length  Movie Size      Disc Size       Bitrate Bitrate Main Audio Track                          Secondary Audio Track
-----                                                           ------  ------- --------------  --------------  ------- ------- ------------------                        ---------------------
00305.MPLS                                                      AVC     0:24:07 1,804,363,776   31,593,935,460  9.97    9.00    DD AC3 2.0 320Kbps
Code:
DISC INFO:

Disc Title:     Splash - Blu-ray™
Disc Label:     SPLASH
Disc Size:      31,593,935,460 bytes
Protection:     AACS
Extras:         BD-Java
BDInfo:         0.7.5.5

PLAYLIST REPORT:

Name:                   00305.MPLS
Length:                 0:24:07.879 (h:m:s.ms)
Size:                   1,804,363,776 bytes
Total Bitrate:          9.97 Mbps

VIDEO:

Codec                   Bitrate             Description     
-----                   -------             -----------     
MPEG-4 AVC Video        8998 kbps           480i / 29.970 fps / 4:3 / High Profile 4.1

AUDIO:

Codec                           Language        Bitrate         Description     
-----                           --------        -------         -----------     
Dolby Digital Audio             English         320 kbps        2.0 / 48 kHz /   320 kbps / DN -31dB

SUBTITLES:

Codec                           Language        Bitrate         Description     
-----                           --------        -------         -----------     
Presentation Graphics           English         27.819 kbps                     
Presentation Graphics           French          24.264 kbps                     
Presentation Graphics           Spanish         26.551 kbps                     
Presentation Graphics           Portuguese      22.438 kbps                     

FILES:

Name            Time In         Length          Size            Total Bitrate   
----            -------         ------          ----            -------------   
00252.M2TS      0:00:00.000     0:24:07.879     1,804,363,776   9,970           

CHAPTERS:

Number          Time In         Length          Avg Video Rate  Max 1-Sec Rate  Max 1-Sec Time  Max 5-Sec Rate  Max 5-Sec Time  Max 10Sec Rate  Max 10Sec Time  Avg Frame Size  Max Frame Size  Max Frame Time  
------          -------         ------          --------------  --------------  --------------  --------------  --------------  --------------  --------------  --------------  --------------  --------------  
1               0:00:00.000     0:04:43.483     9,030 kbps      16,150 kbps     00:04:08.581    14,343 kbps     00:04:04.510    13,295 kbps     00:04:02.942    37,659 bytes    112,002 bytes   00:04:38.645    
2               0:04:43.483     0:02:56.509     9,312 kbps      12,641 kbps     00:07:04.857    12,313 kbps     00:06:22.615    12,162 kbps     00:06:22.982    38,839 bytes    110,133 bytes   00:06:40.233    
3               0:07:39.992     0:01:51.978     8,436 kbps      10,848 kbps     00:09:17.456    10,432 kbps     00:09:17.223    10,045 kbps     00:09:13.452    35,186 bytes    111,012 bytes   00:09:24.463    
4               0:09:31.971     0:05:19.052     8,962 kbps      13,935 kbps     00:10:09.475    13,395 kbps     00:09:47.420    13,196 kbps     00:09:45.418    37,379 bytes    112,003 bytes   00:10:08.040    
5               0:14:51.023     0:05:49.015     9,033 kbps      19,669 kbps     00:16:07.566    12,083 kbps     00:15:38.637    11,543 kbps     00:15:33.365    37,673 bytes    110,421 bytes   00:19:30.602    
6               0:20:40.038     0:03:27.840     8,988 kbps      18,641 kbps     00:23:53.298    16,866 kbps     00:23:49.995    16,147 kbps     00:23:45.490    37,492 bytes    112,166 bytes   00:24:07.846    

STREAM DIAGNOSTICS:

File            PID             Type            Codec           Language                Seconds                 Bitrate                 Bytes           Packets         
----            ---             ----            -----           --------                --------------          --------------          -------------   -----           
00252.M2TS      4113 (0x1011)   0x1B            AVC                                     1447.746                8,999                   1,628,504,454   8,875,861       
00252.M2TS      4352 (0x1100)   0x81            AC3             eng (English)           1447.746                320                     57,916,160      361,976         
00252.M2TS      4608 (0x1200)   0x90            PGS             eng (English)           1447.746                28                      5,034,780       30,485          
00252.M2TS      4609 (0x1201)   0x90            PGS             fra (French)            1447.746                24                      4,391,409       26,928          
00252.M2TS      4610 (0x1202)   0x90            PGS             spa (Spanish)           1447.746                27                      4,805,281       29,082          
00252.M2TS      4611 (0x1203)   0x90            PGS             por (Portuguese)        1447.746                22                      4,060,964       24,861
The Audition Tapes (Play All)

Code:
                                                                                                                Total   Video                                             
Title                                                           Codec   Length  Movie Size      Disc Size       Bitrate Bitrate Main Audio Track                          Secondary Audio Track
-----                                                           ------  ------- --------------  --------------  ------- ------- ------------------                        ---------------------
00300.MPLS                                                      AVC     0:25:27 1,897,697,280   31,593,935,460  9.94    9.00    DD AC3 2.0 320Kbps
Code:
DISC INFO:

Disc Title:     Splash - Blu-ray™
Disc Label:     SPLASH
Disc Size:      31,593,935,460 bytes
Protection:     AACS
Extras:         BD-Java
BDInfo:         0.7.5.5

PLAYLIST REPORT:

Name:                   00300.MPLS
Length:                 0:25:27.826 (h:m:s.ms)
Size:                   1,897,697,280 bytes
Total Bitrate:          9.94 Mbps

VIDEO:

Codec                   Bitrate             Description     
-----                   -------             -----------     
MPEG-4 AVC Video        8995 kbps           480i / 29.970 fps / 4:3 / High Profile 4.1

AUDIO:

Codec                           Language        Bitrate         Description     
-----                           --------        -------         -----------     
Dolby Digital Audio             English         320 kbps        2.0 / 48 kHz /   320 kbps / DN -31dB

SUBTITLES:

Codec                           Language        Bitrate         Description     
-----                           --------        -------         -----------     
Presentation Graphics           English         21.006 kbps                     
Presentation Graphics           French          16.679 kbps                     
Presentation Graphics           Spanish         18.259 kbps                     
Presentation Graphics           Portuguese      16.485 kbps                     

FILES:

Name            Time In         Length          Size            Total Bitrate   
----            -------         ------          ----            -------------   
00876.M2TS      0:00:00.000     0:01:40.700     125,122,560     9,940           
00877.M2TS      0:01:40.700     0:16:17.109     1,213,163,520   9,933           
00878.M2TS      0:17:57.810     0:07:30.016     559,411,200     9,945           

CHAPTERS:

Number          Time In         Length          Avg Video Rate  Max 1-Sec Rate  Max 1-Sec Time  Max 5-Sec Rate  Max 5-Sec Time  Max 10Sec Rate  Max 10Sec Time  Avg Frame Size  Max Frame Size  Max Frame Time  
------          -------         ------          --------------  --------------  --------------  --------------  --------------  --------------  --------------  --------------  --------------  --------------  
1               0:00:00.000     0:01:40.700     8,992 kbps      10,702 kbps     00:01:37.497    9,821 kbps      00:00:51.117    9,547 kbps      00:00:49.049    37,492 bytes    112,166 bytes   00:01:40.667    
2               0:01:40.700     0:01:52.812     9,003 kbps      10,762 kbps     00:01:41.601    9,580 kbps      00:01:41.601    9,353 kbps      00:02:34.220    37,551 bytes    112,162 bytes   00:01:41.634    
3               0:03:33.513     0:05:54.554     9,019 kbps      11,283 kbps     00:08:05.885    9,830 kbps      00:08:02.081    9,527 kbps      00:08:05.885    37,617 bytes    66,179 bytes    00:08:35.348    
4               0:09:28.067     0:04:58.564     8,972 kbps      12,981 kbps     00:10:17.183    11,377 kbps     00:10:17.016    10,981 kbps     00:10:16.616    37,421 bytes    81,220 bytes    00:10:17.850    
5               0:14:26.632     0:03:31.177     8,988 kbps      11,073 kbps     00:17:13.132    10,122 kbps     00:17:13.065    9,952 kbps      00:17:11.230    37,487 bytes    112,166 bytes   00:17:57.776    
6               0:17:57.810     0:07:30.016     8,995 kbps      13,451 kbps     00:22:41.359    11,000 kbps     00:18:50.896    10,420 kbps     00:18:49.328    37,518 bytes    112,166 bytes   00:25:27.792    

STREAM DIAGNOSTICS:

File            PID             Type            Codec           Language                Seconds                 Bitrate                 Bytes           Packets         
----            ---             ----            -----           --------                --------------          --------------          -------------   -----           
00876.M2TS      4113 (0x1011)   0x1B            AVC                                     100.567                 9,004                   113,187,280     616,921         
00876.M2TS      4352 (0x1100)   0x81            AC3             eng (English)           100.567                 320                     4,028,160       25,176          
00876.M2TS      4608 (0x1200)   0x90            PGS             eng (English)           100.567                 22                      281,648         1,717           
00876.M2TS      4609 (0x1201)   0x90            PGS             fra (French)            100.567                 18                      224,515         1,405           
00876.M2TS      4610 (0x1202)   0x90            PGS             spa (Spanish)           100.567                 21                      265,533         1,642           
00876.M2TS      4611 (0x1203)   0x90            PGS             por (Portuguese)        100.567                 18                      225,621         1,404           
00877.M2TS      4113 (0x1011)   0x1B            AVC                                     976.976                 8,997                   1,098,777,229   5,988,707       
00877.M2TS      4352 (0x1100)   0x81            AC3             eng (English)           976.976                 320                     39,084,800      244,280         
00877.M2TS      4608 (0x1200)   0x90            PGS             eng (English)           976.976                 20                      2,453,048       15,465          
00877.M2TS      4609 (0x1201)   0x90            PGS             fra (French)            976.976                 16                      1,934,023       12,400          
00877.M2TS      4610 (0x1202)   0x90            PGS             spa (Spanish)           976.976                 17                      2,083,044       13,066          
00877.M2TS      4611 (0x1203)   0x90            PGS             por (Portuguese)        976.976                 15                      1,868,623       11,865          
00878.M2TS      4113 (0x1011)   0x1B            AVC                                     449.883                 8,997                   505,969,853     2,757,687       
00878.M2TS      4352 (0x1100)   0x81            AC3             eng (English)           449.883                 320                     18,001,920      112,512         
00878.M2TS      4608 (0x1200)   0x90            PGS             eng (English)           449.883                 23                      1,277,042       8,001           
00878.M2TS      4609 (0x1201)   0x90            PGS             fra (French)            449.883                 18                      1,026,695       6,543           
00878.M2TS      4610 (0x1202)   0x90            PGS             spa (Spanish)           449.883                 20                      1,138,459       7,111           
00878.M2TS      4611 (0x1203)   0x90            PGS             por (Portuguese)        449.883                 19                      1,054,003       6,631
Attached Images
File Type: jpg SPLASH-00800-bitrate-01s.jpg (19.3 KB, 5 views)
File Type: jpg SPLASH-00306-bitrate-01s.jpg (15.1 KB, 1 views)
File Type: jpg SPLASH-00307-bitrate-01s.jpg (15.5 KB, 1 views)
File Type: jpg SPLASH-00305-bitrate-01s.jpg (18.7 KB, 1 views)
File Type: jpg SPLASH-00300-bitrate-01s.jpg (17.1 KB, 1 views)
  Reply With Quote
Old 09-03-2020, 12:12 PM   #33
#Darren #Darren is offline
Blu-ray Ninja
 
#Darren's Avatar
 
Feb 2008
1471
62
Default

I have it still sealed. Brought it years ago. Keep planning to watch it but never do...
  Reply With Quote
Old 01-12-2021, 01:57 AM   #34
Scottishguy Scottishguy is offline
Banned
 
Apr 2019
129
1440
26
1
Default



  Reply With Quote
Thanks given by:
Davidian (01-12-2021)
Old 01-12-2021, 04:03 AM   #35
Jay H. Jay H. is offline
Blu-ray Champion
 
Jay H.'s Avatar
 
Oct 2019
in a house, surrounded by cats and dogs
8
826
173
2
Default

Quote:
Originally Posted by Scottishguy View Post


And I thought Massacre at Central High was too expensive.
  Reply With Quote
Old 01-12-2021, 07:38 AM   #36
shireguy shireguy is offline
Blu-ray Guru
 
shireguy's Avatar
 
May 2009
Sydney Australia
292
4055
24
Default

Have 2 copies of this..

Unsealed and watched (we watched it on Xmas day)... and 1 sealed.

Mmmm... should I sell the sealed one ??? See not so rare
  Reply With Quote
Old 01-12-2021, 09:05 AM   #37
Scottishguy Scottishguy is offline
Banned
 
Apr 2019
129
1440
26
1
Default

Quote:
Originally Posted by shireguy View Post
Have 2 copies of this..

Unsealed and watched (we watched it on Xmas day)... and 1 sealed.

Mmmm... should I sell the sealed one ??? See not so rare
I'd give it another 5 year's.
  Reply With Quote
Old 01-12-2021, 11:45 AM   #38
drush9999 drush9999 is offline
Blu-ray Champion
 
drush9999's Avatar
 
Nov 2016
Sutton Coldfield, England
81
3953
521
1
Default

Strokes my own copies of Splash and Dogma
  Reply With Quote
Thanks given by:
Scottishguy (01-12-2021), shireguy (01-12-2021)
Old 01-12-2021, 12:07 PM   #39
Scottishguy Scottishguy is offline
Banned
 
Apr 2019
129
1440
26
1
Default

Quote:
Originally Posted by drush9999 View Post
Strokes my own copies of Splash and Dogma
Splash new and sealed is on it's way to being a 1000 whatever money Blu-ray. I'm Jacks complete lack of surprise.

Dogma does have a chance of getting another release.

These titles aren't pricey for rarity exactly, rare enough
though. It's what they are, but limited to 1 or 2 countries.

I got lucky finding a copy of Goldstone (UK) in HMV not long ago, which is a much much rarer release to find. Yet that will probably only ever end up reaching 100 to 150 quid I'd say. Just because it's not a very sought after film, but there will always be enough nut jobs here that like Australian cinema who will drop the money for it in the future.

  Reply With Quote
Old 01-12-2021, 07:07 PM   #40
Monterey Jack Monterey Jack is offline
Blu-ray Grand Duke
 
Monterey Jack's Avatar
 
Oct 2011
647
Default

As nice as Daryl Hannah's uncensored bum is, it ain't worth $200.
  Reply With Quote
Thanks given by:
aviosis (02-17-2022)
Reply
Go Back   Blu-ray Forum > Movies > Blu-ray Movies - International > Australia


Thread Tools
Display Modes

Posting Rules
You may not post new threads
You may not post replies
You may not post attachments
You may not edit your posts

BB code is On
Smilies are On
[IMG] code is On
HTML code is Off

Forum Jump


All times are GMT. The time now is 10:51 AM.