Best Blu-ray Movie Deals


Best Blu-ray Movie Deals, See All the Deals »
Top deals | New deals  
 All countries United States United Kingdom Canada Germany France Spain Italy Australia Netherlands Japan Mexico
Black Panther: Wakanda Forever 4K (Blu-ray)
AU$36.98
 
Black Panther: Wakanda Forever 4K (Blu-ray)
AU$44.00
5 hrs ago
Don't Worry Darling 4K (Blu-ray)
AU$32.95
 
My Fair Lady (Blu-ray)
AU$6.50
 
Knightfall: Season One (Blu-ray)
AU$5.00
 
Highlander (Blu-ray)
AU$6.50
 
Bill & Ted's Excellent Adventure (Blu-ray)
AU$6.50
 
Bone Tomahawk (Blu-ray)
AU$6.50
 
The Menu (Blu-ray)
AU$29.98
 
Bones and All (Blu-ray)
AU$26.98
 
Chinatown (Blu-ray)
AU$6.50
 
Demon Slayer: Kimetsu no Yaiba Part 1 (Blu-ray)
AU$37.19
 
What's your next favorite movie?
Join our movie community to find out


Image from: Life of Pi (2012)

Go Back   Blu-ray Forum > Movies > Blu-ray Movies - International > Australia

Reply
 
Thread Tools Display Modes
Old 07-26-2019, 07:48 PM   #1
Filmmaker Filmmaker is offline
Banned
 
Aug 2009
Tulsa, OK (but don't hold it against me!)
90
709
2441
591
24
Default MR. MERCEDES: Season 1 Blu-ray (Australian Exclusive)

As of this writing, Australia is the only country in the world offering a Blu-ray release of Stephen Kingís MR. MERCEDES: Season 1, courtesy of Sony Home Entertainment. It is a two-disc set (no DVDs or digital codes). It offers English Master Audio in 5.1 and 2.0 stereo options, and well as English subtitles. There is not a single, solitary bonus feature, just the episodes. Image quality looks solid, if not perfect (I noticed mild compression artifacting in shots with fog or out-of-focus backgrounds). As someone who does not subscribe to DirecTV, this release is a godsend on which Iíd very nearly given up.

  Reply With Quote
Thanks given by:
Gomephrus (08-01-2019), hiwilliam (07-27-2019)
Old 07-26-2019, 11:06 PM   #2
Arachno-Man Arachno-Man is offline
Member
 
Sep 2018
Default

Where did you get this from? I’ve only seen the DVD in JB
  Reply With Quote
Old 07-27-2019, 12:13 AM   #3
McCrutchy McCrutchy is online now
Contributor
 
McCrutchy's Avatar
 
Dec 2008
East Coast, USA
2
701
5128
200
5
16
Default

Wow, great catch, Filmmaker! I also wanted to see this, but I waited patiently for a Blu-ray. Strange that it's only from Sony Australia but not available at many online shops outside of Amazon.com.au...it makes me wonder if it was some kind of mistake release, or unadvertised Amazon exclusive.

Be that as it may, for those in the US, copies are currently available for US $19.99 and Fulfilled by Amazon at Amazon.com here, although I or someone else will need to confirm it plays in Region A players.
  Reply With Quote
Thanks given by:
Rick Grimes (07-27-2019)
Old 07-27-2019, 01:00 AM   #4
Filmmaker Filmmaker is offline
Banned
 
Aug 2009
Tulsa, OK (but don't hold it against me!)
90
709
2441
591
24
Default

Quote:
Originally Posted by McCrutchy View Post
I or someone else will need to confirm it plays in Region A players.
Rest assured, itís All-Region.
  Reply With Quote
Old 07-27-2019, 07:55 AM   #5
Rick Grimes Rick Grimes is offline
Blu-ray Samurai
 
Rick Grimes's Avatar
 
Jul 2012
203
1393
15
Default

JB HiFi has it as DVD only, but itís great news it is available on Amazon AU. Will wait to see if Sony will be doing a second season, since I am not going to start collecting this on BD to watch in the future if it goes DVD only from S2, despite being an avid Stephen King fan.

There have been a couple of bones TV on BDís are popping up here in Australia only. Future Man is a good example AND at least a Season Two is on the way.

While the lossless Dolby track sounds great and the PQ is very good, they f*cked up big time by not releasing Future Man in itís OAR (2.35:1). 1.78:1 makes the show looked cramped by comparison.
  Reply With Quote
Old 07-29-2019, 06:16 AM   #6
McCrutchy McCrutchy is online now
Contributor
 
McCrutchy's Avatar
 
Dec 2008
East Coast, USA
2
701
5128
200
5
16
Default



BDInfo scan:

This is a local Sony Australia release, not a Sony international one, hence some differences in the presentation. Each disc has an Australian anti-piracy advert before the menu, but other than that, there is nothing else except the episodes.

Both Discs: Copyright Warning / Anti-Piracy Advert

[Show spoiler]The third file running 0:32 is the anti-piracy advert.

Disc 1:

Code:
                                                                                                                Total   Video                                             
Title                                                           Codec   Length  Movie Size      Disc Size       Bitrate Bitrate Main Audio Track                          Secondary Audio Track
-----                                                           ------  ------- --------------  --------------  ------- ------- ------------------                        ---------------------
00096.MPLS                                                      AVC     0:00:56 184,467,456     49,827,535,888  26.27   24.54   DD AC3 2.0 640Kbps
Code:
DISC INFO:

Disc Title:     MrMercedes_S1_D1
Disc Size:      49,827,535,888 bytes
Protection:     AACS
BD-Java:        No
BDInfo:         0.5.8

PLAYLIST REPORT:

Name:                   00096.MPLS
Length:                 0:00:56.181 (h:m:s.ms)
Size:                   184,467,456 bytes
Total Bitrate:          26.27 Mbps

VIDEO:

Codec                   Bitrate             Description     
-----                   -------             -----------     
MPEG-4 AVC Video        24536 kbps          1080p / 23.976 fps / 16:9 / High Profile 4.1

AUDIO:

Codec                           Language        Bitrate         Description     
-----                           --------        -------         -----------     
Dolby Digital Audio             English         640 kbps        2.0 / 48 kHz / 640 kbps

FILES:

Name            Time In         Length          Size            Total Bitrate   
----            -------         ------          ----            -------------   
00069.M2TS      0:00:00.000     0:00:14.055     49,004,544      27,892          
00070.M2TS      0:00:14.055     0:00:10.093     23,709,696      18,792          
00071.M2TS      0:00:24.149     0:00:32.032     111,753,216     27,910          

CHAPTERS:

Number          Time In         Length          Avg Video Rate  Max 1-Sec Rate  Max 1-Sec Time  Max 5-Sec Rate  Max 5-Sec Time  Max 10Sec Rate  Max 10Sec Time  Avg Frame Size  Max Frame Size  Max Frame Time  
------          -------         ------          --------------  --------------  --------------  --------------  --------------  --------------  --------------  --------------  --------------  --------------  
1               0:00:00.000     0:00:14.055     25,970 kbps     43,297 kbps     00:00:04.337    37,328 kbps     00:00:01.459    28,144 kbps     00:00:00.375    134,994 bytes   419,753 bytes   00:00:05.004    
2               0:00:14.055     0:00:10.093     17,940 kbps     21,093 kbps     00:00:14.055    18,547 kbps     00:00:14.055    18,026 kbps     00:00:14.097    93,533 bytes    388,151 bytes   00:00:18.059    
3               0:00:24.149     0:00:32.032     25,985 kbps     37,675 kbps     00:00:51.760    29,775 kbps     00:00:48.465    27,964 kbps     00:00:45.044    135,649 bytes   445,174 bytes   00:00:50.633    

STREAM DIAGNOSTICS:

File            PID             Type            Codec           Language                Seconds                 Bitrate                 Bytes           Packets         
----            ---             ----            -----           --------                --------------          --------------          -------------   -----           
00069.M2TS      4113 (0x1011)   0x1B            AVC                                     13.889                  26,281                  45,627,014      248,133         
00069.M2TS      4352 (0x1100)   0x81            AC3             eng (English)           13.889                  649                     1,126,400       6,600           
00070.M2TS      4113 (0x1011)   0x1B            AVC                                     9.927                   18,242                  22,634,909      123,137         
00071.M2TS      4113 (0x1011)   0x1B            AVC                                     31.865                  26,121                  104,044,061     565,903         
00071.M2TS      4352 (0x1100)   0x81            AC3             eng (English)           31.865                  643                     2,562,560       15,015
Disc 2:

Code:
                                                                                                                Total   Video                                             
Title                                                           Codec   Length  Movie Size      Disc Size       Bitrate Bitrate Main Audio Track                          Secondary Audio Track
-----                                                           ------  ------- --------------  --------------  ------- ------- ------------------                        ---------------------
00096.MPLS                                                      AVC     0:00:56 184,467,456     49,167,355,433  26.27   24.54   DD AC3 2.0 640Kbps
Code:
DISC INFO:

Disc Title:     MrMercedes_S1_D2
Disc Size:      49,167,355,433 bytes
Protection:     AACS
BD-Java:        No
BDInfo:         0.5.8

PLAYLIST REPORT:

Name:                   00096.MPLS
Length:                 0:00:56.181 (h:m:s.ms)
Size:                   184,467,456 bytes
Total Bitrate:          26.27 Mbps

VIDEO:

Codec                   Bitrate             Description     
-----                   -------             -----------     
MPEG-4 AVC Video        24536 kbps          1080p / 23.976 fps / 16:9 / High Profile 4.1

AUDIO:

Codec                           Language        Bitrate         Description     
-----                           --------        -------         -----------     
Dolby Digital Audio             English         640 kbps        2.0 / 48 kHz / 640 kbps

FILES:

Name            Time In         Length          Size            Total Bitrate   
----            -------         ------          ----            -------------   
00069.M2TS      0:00:00.000     0:00:14.055     49,004,544      27,892          
00070.M2TS      0:00:14.055     0:00:10.093     23,709,696      18,792          
00071.M2TS      0:00:24.149     0:00:32.032     111,753,216     27,910          

CHAPTERS:

Number          Time In         Length          Avg Video Rate  Max 1-Sec Rate  Max 1-Sec Time  Max 5-Sec Rate  Max 5-Sec Time  Max 10Sec Rate  Max 10Sec Time  Avg Frame Size  Max Frame Size  Max Frame Time  
------          -------         ------          --------------  --------------  --------------  --------------  --------------  --------------  --------------  --------------  --------------  --------------  
1               0:00:00.000     0:00:14.055     25,970 kbps     43,297 kbps     00:00:04.337    37,328 kbps     00:00:01.459    28,144 kbps     00:00:00.375    134,994 bytes   419,753 bytes   00:00:05.004    
2               0:00:14.055     0:00:10.093     17,940 kbps     21,093 kbps     00:00:14.055    18,547 kbps     00:00:14.055    18,026 kbps     00:00:14.097    93,533 bytes    388,151 bytes   00:00:18.059    
3               0:00:24.149     0:00:32.032     25,985 kbps     37,675 kbps     00:00:51.760    29,775 kbps     00:00:48.465    27,964 kbps     00:00:45.044    135,649 bytes   445,174 bytes   00:00:50.633    

STREAM DIAGNOSTICS:

File            PID             Type            Codec           Language                Seconds                 Bitrate                 Bytes           Packets         
----            ---             ----            -----           --------                --------------          --------------          -------------   -----           
00069.M2TS      4113 (0x1011)   0x1B            AVC                                     13.889                  26,281                  45,627,014      248,133         
00069.M2TS      4352 (0x1100)   0x81            AC3             eng (English)           13.889                  649                     1,126,400       6,600           
00070.M2TS      4113 (0x1011)   0x1B            AVC                                     9.927                   18,242                  22,634,909      123,137         
00071.M2TS      4113 (0x1011)   0x1B            AVC                                     31.865                  26,121                  104,044,061     565,903         
00071.M2TS      4352 (0x1100)   0x81            AC3             eng (English)           31.865                  643                     2,562,560       15,015


The episodes are offered with either 5.1 or 2.0 audio tracks in DTS-HD MA, while English subtitles are SDH / HoH in a slightly thicker, smaller white font.

Disc 1 (Episodes 1-5):

Code:
                                                                                                                Total   Video                                             
Title                                                           Codec   Length  Movie Size      Disc Size       Bitrate Bitrate Main Audio Track                          Secondary Audio Track
-----                                                           ------  ------- --------------  --------------  ------- ------- ------------------                        ---------------------
00118.MPLS                                                      AVC     4:25:11 49,630,826,496  49,827,535,888  24.95   19.99   DTS-HD Master 5.1 1771Kbps (48kHz/16-bit) DTS-HD Master 2.0 1585Kbps (48kHz/16-bit)
Code:
DISC INFO:

Disc Title:     MrMercedes_S1_D1
Disc Size:      49,827,535,888 bytes
Protection:     AACS
BD-Java:        No
BDInfo:         0.5.8

PLAYLIST REPORT:

Name:                   00118.MPLS
Length:                 4:25:11.186 (h:m:s.ms)
Size:                   49,630,826,496 bytes
Total Bitrate:          24.95 Mbps

VIDEO:

Codec                   Bitrate             Description     
-----                   -------             -----------     
MPEG-4 AVC Video        19990 kbps          1080p / 23.976 fps / 16:9 / High Profile 4.1

AUDIO:

Codec                           Language        Bitrate         Description     
-----                           --------        -------         -----------     
DTS-HD Master Audio             English         1771 kbps       5.1 / 48 kHz / 1771 kbps / 16-bit (DTS Core: 5.1 / 48 kHz / 1509 kbps / 16-bit)
DTS-HD Master Audio             English         1585 kbps       2.0 / 48 kHz / 1585 kbps / 16-bit (DTS Core: 2.0 / 48 kHz / 1509 kbps / 16-bit)

SUBTITLES:

Codec                           Language        Bitrate         Description     
-----                           --------        -------         -----------     
Presentation Graphics           English         37.211 kbps                     

FILES:

Name            Time In         Length          Size            Total Bitrate   
----            -------         ------          ----            -------------   
00074.M2TS      0:00:00.000     0:57:01.000     10,703,241,216  25,029          
00075.M2TS      0:57:01.000     0:53:38.256     10,032,629,760  24,939          
00076.M2TS      1:50:39.257     0:49:09.529     9,204,332,544   24,965          
00080.M2TS      2:39:48.787     0:53:37.839     10,026,639,360  24,928          
00078.M2TS      3:33:26.627     0:51:44.559     9,663,983,616   24,903          

CHAPTERS:

Number          Time In         Length          Avg Video Rate  Max 1-Sec Rate  Max 1-Sec Time  Max 5-Sec Rate  Max 5-Sec Time  Max 10Sec Rate  Max 10Sec Time  Avg Frame Size  Max Frame Size  Max Frame Time  
------          -------         ------          --------------  --------------  --------------  --------------  --------------  --------------  --------------  --------------  --------------  --------------  
1               0:00:00.000     0:07:59.729     18,817 kbps     28,034 kbps     00:06:02.528    26,356 kbps     00:06:28.596    24,821 kbps     00:06:26.344    98,095 bytes    499,844 bytes   00:07:53.347    
2               0:07:59.729     0:08:20.082     19,766 kbps     30,678 kbps     00:10:33.132    27,707 kbps     00:10:29.128    27,411 kbps     00:10:24.123    103,053 bytes   335,068 bytes   00:10:41.349    
3               0:16:19.812     0:06:49.700     21,714 kbps     40,332 kbps     00:21:11.937    34,201 kbps     00:20:40.530    33,914 kbps     00:20:36.944    113,206 bytes   572,743 bytes   00:20:18.926    
4               0:23:09.513     0:08:14.368     20,073 kbps     34,739 kbps     00:29:53.416    29,926 kbps     00:29:53.416    26,225 kbps     00:30:13.269    104,653 bytes   444,477 bytes   00:31:04.821    
5               0:31:23.882     0:08:28.841     20,278 kbps     32,883 kbps     00:31:54.162    31,786 kbps     00:31:51.159    28,065 kbps     00:33:29.090    105,721 bytes   500,189 bytes   00:33:35.138    
6               0:39:52.723     0:05:54.270     20,821 kbps     30,431 kbps     00:45:02.783    27,318 kbps     00:43:55.507    26,297 kbps     00:43:19.054    108,554 bytes   504,544 bytes   00:45:46.994    
7               0:45:46.994     0:07:11.556     20,860 kbps     39,428 kbps     00:45:47.327    34,945 kbps     00:49:19.289    30,760 kbps     00:49:14.326    108,756 bytes   572,135 bytes   00:52:52.377    
8               0:52:58.550     0:04:02.450     16,338 kbps     37,504 kbps     00:56:48.738    29,989 kbps     00:56:46.403    24,005 kbps     00:56:43.024    85,179 bytes    609,760 bytes   00:56:38.311    
9               0:57:01.000     0:07:41.878     19,171 kbps     29,603 kbps     00:59:39.534    26,418 kbps     00:59:39.492    25,724 kbps     00:59:39.492    99,947 bytes    365,238 bytes   00:59:01.829    
10              1:04:42.878     0:06:25.259     19,554 kbps     26,943 kbps     01:10:43.656    26,018 kbps     01:10:50.913    24,164 kbps     01:10:50.996    101,945 bytes   355,152 bytes   01:06:47.044    
11              1:11:08.138     0:05:40.882     20,823 kbps     29,242 kbps     01:11:56.603    27,816 kbps     01:11:52.599    27,598 kbps     01:11:47.594    108,562 bytes   393,925 bytes   01:12:27.384    
12              1:16:49.021     0:09:13.511     20,517 kbps     39,345 kbps     01:20:20.982    32,675 kbps     01:19:54.456    31,087 kbps     01:19:51.703    106,966 bytes   637,187 bytes   01:19:52.746    
13              1:26:02.532     0:08:44.774     21,334 kbps     32,776 kbps     01:29:44.545    30,763 kbps     01:27:16.564    30,496 kbps     01:27:16.564    111,224 bytes   536,508 bytes   01:29:45.546    
14              1:34:47.306     0:07:23.276     20,023 kbps     24,753 kbps     01:35:05.783    23,752 kbps     01:35:01.779    23,541 kbps     01:34:57.775    104,392 bytes   283,427 bytes   01:38:54.219    
15              1:42:10.582     0:03:50.813     19,479 kbps     27,781 kbps     01:43:18.108    24,143 kbps     01:43:18.108    23,692 kbps     01:42:10.582    101,552 bytes   257,538 bytes   01:43:43.634    
16              1:46:01.396     0:04:37.860     17,724 kbps     37,340 kbps     01:50:27.037    30,437 kbps     01:50:24.701    24,426 kbps     01:46:15.452    92,406 bytes    617,734 bytes   01:50:15.608    
17              1:50:39.257     0:07:16.227     19,803 kbps     34,479 kbps     01:52:19.566    25,629 kbps     01:53:09.240    25,186 kbps     01:53:09.240    103,244 bytes   408,039 bytes   01:51:34.896    
18              1:57:55.485     0:04:49.330     20,668 kbps     36,434 kbps     02:02:20.583    33,063 kbps     02:02:19.582    31,103 kbps     02:02:17.079    107,751 bytes   397,413 bytes   02:01:57.018    
19              2:02:44.815     0:07:17.937     21,467 kbps     26,596 kbps     02:08:01.507    25,086 kbps     02:08:06.804    24,650 kbps     02:07:52.498    111,918 bytes   256,047 bytes   02:09:16.206    
20              2:10:02.753     0:05:12.353     23,409 kbps     34,650 kbps     02:14:33.440    30,909 kbps     02:14:33.064    28,332 kbps     02:14:27.934    122,043 bytes   488,261 bytes   02:10:36.036    
21              2:15:15.106     0:04:42.865     19,723 kbps     23,700 kbps     02:16:42.235    21,586 kbps     02:18:50.196    21,476 kbps     02:18:45.108    102,825 bytes   269,219 bytes   02:18:53.867    
22              2:19:57.972     0:07:02.130     17,623 kbps     30,655 kbps     02:21:33.651    28,759 kbps     02:21:30.773    24,452 kbps     02:21:30.773    91,876 bytes    429,903 bytes   02:25:25.550    
23              2:27:00.102     0:05:27.410     21,459 kbps     34,081 kbps     02:31:32.750    31,083 kbps     02:31:22.198    28,092 kbps     02:31:30.372    111,880 bytes   570,438 bytes   02:30:14.338    
24              2:32:27.513     0:07:21.274     17,199 kbps     36,911 kbps     02:39:36.191    29,288 kbps     02:39:34.147    23,533 kbps     02:39:30.727    89,670 bytes    632,812 bytes   02:39:25.055    
25              2:39:48.787     0:05:47.472     19,702 kbps     30,366 kbps     02:44:52.299    25,487 kbps     02:41:40.399    23,598 kbps     02:41:39.314    102,716 bytes   459,734 bytes   02:40:36.710    
26              2:45:36.259     0:06:19.170     19,660 kbps     31,670 kbps     02:49:22.485    27,660 kbps     02:49:18.982    26,577 kbps     02:49:15.728    102,499 bytes   497,095 bytes   02:49:23.486    
27              2:51:55.430     0:06:51.119     19,328 kbps     22,768 kbps     02:58:31.700    21,519 kbps     02:55:16.297    20,939 kbps     02:55:15.713    100,766 bytes   327,049 bytes   02:53:18.304    
28              2:58:46.549     0:05:43.134     24,721 kbps     39,593 kbps     03:00:53.676    37,980 kbps     03:00:45.209    37,192 kbps     03:01:06.772    128,886 bytes   640,147 bytes   03:02:32.941    
29              3:04:29.683     0:06:25.468     22,321 kbps     35,056 kbps     03:04:33.270    33,730 kbps     03:04:29.933    31,099 kbps     03:04:29.683    116,373 bytes   456,174 bytes   03:06:28.176    
30              3:10:55.151     0:07:24.861     20,103 kbps     30,727 kbps     03:15:38.351    28,592 kbps     03:15:37.600    26,099 kbps     03:15:35.014    104,810 bytes   400,936 bytes   03:16:41.915    
31              3:18:20.013     0:06:51.577     19,171 kbps     22,497 kbps     03:19:29.374    21,886 kbps     03:19:25.370    21,748 kbps     03:19:18.613    99,951 bytes    322,884 bytes   03:20:35.732    
32              3:25:11.590     0:08:15.036     16,456 kbps     36,219 kbps     03:33:14.156    28,738 kbps     03:33:12.112    23,203 kbps     03:33:08.692    85,795 bytes    632,812 bytes   03:33:03.020    
33              3:33:26.627     0:05:27.410     20,322 kbps     34,861 kbps     03:33:48.899    27,206 kbps     03:33:46.480    25,531 kbps     03:37:04.302    105,950 bytes   637,730 bytes   03:34:44.329    
34              3:38:54.037     0:05:58.191     19,961 kbps     24,477 kbps     03:44:47.724    23,874 kbps     03:44:47.223    23,246 kbps     03:44:42.218    104,069 bytes   634,296 bytes   03:40:52.822    
35              3:44:52.228     0:06:09.243     22,675 kbps     38,023 kbps     03:50:59.595    36,001 kbps     03:50:56.467    33,597 kbps     03:47:41.939    118,217 bytes   475,847 bytes   03:47:51.157    
36              3:51:01.472     0:03:15.403     19,989 kbps     23,736 kbps     03:51:02.223    22,386 kbps     03:53:25.157    21,911 kbps     03:53:24.115    104,213 bytes   532,074 bytes   03:54:16.876    
37              3:54:16.876     0:08:43.773     20,139 kbps     37,476 kbps     03:54:22.214    35,158 kbps     03:54:20.212    31,689 kbps     03:54:19.420    104,996 bytes   526,558 bytes   04:03:00.649    
38              4:03:00.649     0:05:20.945     21,925 kbps     39,331 kbps     04:03:42.733    38,053 kbps     04:03:01.108    35,829 kbps     04:03:59.875    114,304 bytes   634,661 bytes   04:03:43.317    
39              4:08:21.594     0:10:35.926     18,429 kbps     28,469 kbps     04:12:20.458    27,410 kbps     04:12:20.250    26,585 kbps     04:12:18.248    96,078 bytes    266,338 bytes   04:12:21.084    
40              4:18:57.521     0:06:13.664     17,874 kbps     34,354 kbps     04:24:58.674    27,234 kbps     04:24:56.630    22,257 kbps     04:24:53.210    93,196 bytes    633,029 bytes   04:24:47.538    

STREAM DIAGNOSTICS:

File            PID             Type            Codec           Language                Seconds                 Bitrate                 Bytes           Packets         
----            ---             ----            -----           --------                --------------          --------------          -------------   -----           
00074.M2TS      4113 (0x1011)   0x1B            AVC                                     3420.834                19,992                  8,548,762,821   46,507,958      
00074.M2TS      4352 (0x1100)   0x86            DTS-HD MA       eng (English)           3420.834                1,815                   775,947,996     4,741,778       
00074.M2TS      4353 (0x1101)   0x86            DTS-HD MA       eng (English)           3420.834                1,614                   690,318,844     4,290,996       
00074.M2TS      4608 (0x1200)   0x90            PGS             eng (English)           3420.834                37                      15,796,356      90,675          
00075.M2TS      4113 (0x1011)   0x1B            AVC                                     3218.090                19,992                  8,041,810,924   43,750,114      
00075.M2TS      4352 (0x1100)   0x86            DTS-HD MA       eng (English)           3218.090                1,763                   709,191,632     4,346,889       
00075.M2TS      4353 (0x1101)   0x86            DTS-HD MA       eng (English)           3218.090                1,578                   634,757,436     3,958,715       
00075.M2TS      4608 (0x1200)   0x90            PGS             eng (English)           3218.090                39                      15,599,658      89,700          
00076.M2TS      4113 (0x1011)   0x1B            AVC                                     2949.363                19,992                  7,370,624,959   40,098,521      
00076.M2TS      4352 (0x1100)   0x86            DTS-HD MA       eng (English)           2949.363                1,782                   656,980,816     4,024,910       
00076.M2TS      4353 (0x1101)   0x86            DTS-HD MA       eng (English)           2949.363                1,576                   581,102,656     3,629,707       
00076.M2TS      4608 (0x1200)   0x90            PGS             eng (English)           2949.363                41                      15,193,926      87,246          
00080.M2TS      4113 (0x1011)   0x1B            AVC                                     3217.673                19,988                  8,039,174,993   43,735,889      
00080.M2TS      4352 (0x1100)   0x86            DTS-HD MA       eng (English)           3217.673                1,761                   708,306,596     4,343,050       
00080.M2TS      4353 (0x1101)   0x86            DTS-HD MA       eng (English)           3217.673                1,577                   634,388,248     3,958,540       
00080.M2TS      4608 (0x1200)   0x90            PGS             eng (English)           3217.673                33                      13,323,541      76,769          
00078.M2TS      4113 (0x1011)   0x1B            AVC                                     3104.393                19,993                  7,758,119,952   42,206,768      
00078.M2TS      4352 (0x1100)   0x86            DTS-HD MA       eng (English)           3104.393                1,729                   671,003,732     4,122,590       
00078.M2TS      4353 (0x1101)   0x86            DTS-HD MA       eng (English)           3104.393                1,575                   611,297,296     3,818,716       
00078.M2TS      4608 (0x1200)   0x90            PGS             eng (English)           3104.393                36                      14,094,533      81,146
Disc 2 (Episodes 6-10):

Code:
                                                                                                                Total   Video                                             
Title                                                           Codec   Length  Movie Size      Disc Size       Bitrate Bitrate Main Audio Track                          Secondary Audio Track
-----                                                           ------  ------- --------------  --------------  ------- ------- ------------------                        ---------------------
00118.MPLS                                                      AVC     4:21:37 48,970,659,840  49,167,355,433  24.96   19.99   DTS-HD Master 5.1 1774Kbps (48kHz/16-bit) DTS-HD Master 2.0 1587Kbps (48kHz/16-bit)
Code:
DISC INFO:

Disc Title:     MrMercedes_S1_D2
Disc Size:      49,167,355,433 bytes
Protection:     AACS
BD-Java:        No
BDInfo:         0.5.8

PLAYLIST REPORT:

Name:                   00118.MPLS
Length:                 4:21:37.640 (h:m:s.ms)
Size:                   48,970,659,840 bytes
Total Bitrate:          24.96 Mbps

VIDEO:

Codec                   Bitrate             Description     
-----                   -------             -----------     
MPEG-4 AVC Video        19990 kbps          1080p / 23.976 fps / 16:9 / High Profile 4.1

AUDIO:

Codec                           Language        Bitrate         Description     
-----                           --------        -------         -----------     
DTS-HD Master Audio             English         1774 kbps       5.1 / 48 kHz / 1774 kbps / 16-bit (DTS Core: 5.1 / 48 kHz / 1509 kbps / 16-bit)
DTS-HD Master Audio             English         1587 kbps       2.0 / 48 kHz / 1587 kbps / 16-bit (DTS Core: 2.0 / 48 kHz / 1509 kbps / 16-bit)

SUBTITLES:

Codec                           Language        Bitrate         Description     
-----                           --------        -------         -----------     
Presentation Graphics           English         33.915 kbps                     

FILES:

Name            Time In         Length          Size            Total Bitrate   
----            -------         ------          ----            -------------   
00074.M2TS      0:00:00.000     0:56:53.910     10,645,733,376  24,947          
00075.M2TS      0:56:53.910     0:50:09.840     9,366,749,184   24,896          
00076.M2TS      1:47:03.750     0:50:23.103     9,406,144,512   24,891          
00080.M2TS      2:37:26.854     0:49:39.434     9,314,168,832   25,009          
00081.M2TS      3:27:06.288     0:54:31.351     10,237,863,936  25,036          

CHAPTERS:

Number          Time In         Length          Avg Video Rate  Max 1-Sec Rate  Max 1-Sec Time  Max 5-Sec Rate  Max 5-Sec Time  Max 10Sec Rate  Max 10Sec Time  Avg Frame Size  Max Frame Size  Max Frame Time  
------          -------         ------          --------------  --------------  --------------  --------------  --------------  --------------  --------------  --------------  --------------  --------------  
1               0:00:00.000     0:05:52.477     19,644 kbps     33,751 kbps     00:02:03.832    30,332 kbps     00:02:00.537    26,075 kbps     00:02:00.286    102,401 bytes   558,568 bytes   00:04:50.790    
2               0:05:52.477     0:08:10.573     22,407 kbps     35,521 kbps     00:07:53.514    32,944 kbps     00:07:51.137    31,803 kbps     00:07:51.137    116,820 bytes   582,675 bytes   00:09:12.134    
3               0:14:03.050     0:07:10.638     20,269 kbps     26,448 kbps     00:16:39.832    25,069 kbps     00:16:38.455    23,861 kbps     00:16:37.454    105,676 bytes   318,916 bytes   00:14:24.905    
4               0:21:13.689     0:07:01.003     19,064 kbps     26,010 kbps     00:23:57.519    24,959 kbps     00:23:50.762    24,505 kbps     00:23:49.511    99,393 bytes    376,939 bytes   00:23:56.601    
5               0:28:14.693     0:07:45.590     19,075 kbps     30,100 kbps     00:34:48.211    26,873 kbps     00:34:46.209    25,244 kbps     00:34:46.209    99,450 bytes    535,772 bytes   00:34:47.335    
6               0:36:00.283     0:05:00.174     22,295 kbps     38,280 kbps     00:38:07.660    37,848 kbps     00:38:05.199    37,269 kbps     00:38:03.030    116,234 bytes   566,340 bytes   00:36:10.251    
7               0:41:00.457     0:06:40.775     19,841 kbps     23,767 kbps     00:47:33.267    22,250 kbps     00:47:29.346    21,829 kbps     00:47:27.010    103,444 bytes   361,494 bytes   00:45:32.980    
8               0:47:41.233     0:09:12.677     18,158 kbps     34,873 kbps     00:56:41.439    27,666 kbps     00:56:39.395    22,521 kbps     00:56:35.975    94,668 bytes    633,028 bytes   00:56:30.303    
9               0:56:53.910     0:07:18.104     21,265 kbps     37,073 kbps     01:02:01.426    29,282 kbps     01:02:07.014    27,927 kbps     01:02:01.175    110,865 bytes   636,214 bytes   00:58:50.568    
10              1:04:12.014     0:06:44.987     20,331 kbps     27,967 kbps     01:04:19.605    27,236 kbps     01:04:15.977    26,466 kbps     01:04:12.014    105,994 bytes   319,266 bytes   01:05:20.249    
11              1:10:57.002     0:06:06.157     19,994 kbps     25,664 kbps     01:14:45.022    24,208 kbps     01:14:42.936    22,384 kbps     01:14:37.639    104,242 bytes   283,282 bytes   01:15:27.105    
12              1:17:03.160     0:06:10.953     19,097 kbps     24,308 kbps     01:19:35.395    22,458 kbps     01:19:33.685    20,826 kbps     01:19:57.417    99,561 bytes    291,811 bytes   01:19:35.729    
13              1:23:14.114     0:03:28.791     19,638 kbps     21,648 kbps     01:26:41.905    21,140 kbps     01:26:37.901    20,705 kbps     01:26:32.896    102,384 bytes   230,665 bytes   01:23:44.519    
14              1:26:42.906     0:08:51.781     19,924 kbps     23,445 kbps     01:27:55.853    22,728 kbps     01:27:52.100    22,576 kbps     01:27:48.054    103,874 bytes   263,065 bytes   01:29:58.476    
15              1:35:34.687     0:04:28.685     19,923 kbps     35,555 kbps     01:38:13.304    31,596 kbps     01:38:10.259    27,788 kbps     01:38:09.341    103,871 bytes   629,418 bytes   01:38:10.384    
16              1:40:03.372     0:07:00.378     19,364 kbps     40,246 kbps     01:41:16.862    31,039 kbps     01:41:20.949    29,779 kbps     01:41:16.487    100,954 bytes   632,812 bytes   01:46:40.102    
17              1:47:03.750     0:06:51.911     19,735 kbps     40,101 kbps     01:47:53.049    29,322 kbps     01:47:52.757    26,973 kbps     01:52:20.733    102,891 bytes   515,471 bytes   01:47:57.762    
18              1:53:55.662     0:07:31.576     21,977 kbps     29,592 kbps     01:58:16.881    28,469 kbps     01:58:15.254    27,495 kbps     01:58:15.254    114,577 bytes   295,940 bytes   01:58:57.129    
19              2:01:27.238     0:05:28.453     19,615 kbps     34,848 kbps     02:03:16.347    32,725 kbps     02:03:16.347    31,616 kbps     02:03:13.469    102,263 bytes   640,394 bytes   02:06:46.432    
20              2:06:55.691     0:06:42.193     18,658 kbps     29,975 kbps     02:12:26.563    28,560 kbps     02:12:26.438    26,623 kbps     02:12:24.686    97,272 bytes    451,790 bytes   02:13:35.632    
21              2:13:37.884     0:05:25.074     20,076 kbps     26,178 kbps     02:18:49.738    25,251 kbps     02:18:49.195    24,069 kbps     02:18:44.190    104,668 bytes   249,481 bytes   02:17:30.033    
22              2:19:02.959     0:06:37.355     19,332 kbps     29,946 kbps     02:19:07.464    26,559 kbps     02:19:07.464    25,213 kbps     02:20:03.770    100,786 bytes   497,834 bytes   02:24:39.170    
23              2:25:40.314     0:05:35.168     22,665 kbps     34,613 kbps     02:25:50.283    31,220 kbps     02:25:46.279    30,946 kbps     02:25:41.274    118,163 bytes   471,230 bytes   02:28:45.583    
24              2:31:15.483     0:06:11.370     17,868 kbps     35,395 kbps     02:37:14.341    28,034 kbps     02:37:12.297    22,762 kbps     02:37:08.877    93,157 bytes    633,028 bytes   02:37:03.205    
25              2:37:26.854     0:07:16.853     20,365 kbps     32,913 kbps     02:40:32.914    29,177 kbps     02:40:30.162    26,475 kbps     02:37:42.995    106,172 bytes   634,665 bytes   02:39:23.428    
26              2:44:43.707     0:04:37.193     20,182 kbps     33,442 kbps     02:44:52.215    30,716 kbps     02:44:51.298    27,754 kbps     02:44:51.381    105,217 bytes   534,128 bytes   02:44:53.883    
27              2:49:20.900     0:04:29.727     19,796 kbps     24,056 kbps     02:53:40.076    22,374 kbps     02:50:11.659    21,477 kbps     02:53:37.865    103,205 bytes   302,094 bytes   02:50:12.952    
28              2:53:50.628     0:06:59.627     20,758 kbps     29,323 kbps     03:00:44.625    28,376 kbps     03:00:44.542    26,585 kbps     03:00:40.246    108,221 bytes   531,073 bytes   03:00:50.256    
29              3:00:50.256     0:05:26.451     21,487 kbps     34,552 kbps     03:02:16.967    30,324 kbps     03:02:16.216    26,874 kbps     03:02:16.216    112,021 bytes   634,249 bytes   03:02:18.761    
30              3:06:16.707     0:07:46.174     19,402 kbps     22,519 kbps     03:07:13.430    21,109 kbps     03:11:33.857    20,920 kbps     03:11:29.227    101,156 bytes   255,841 bytes   03:08:37.055    
31              3:14:02.881     0:06:01.486     19,722 kbps     27,482 kbps     03:15:11.324    24,484 kbps     03:14:56.142    23,016 kbps     03:17:15.490    102,821 bytes   328,408 bytes   03:14:20.690    
32              3:20:04.367     0:07:01.921     18,563 kbps     35,467 kbps     03:26:53.776    28,124 kbps     03:26:51.732    24,720 kbps     03:20:44.741    96,781 bytes    633,028 bytes   03:26:42.640    
33              3:27:06.288     0:06:48.908     18,931 kbps     37,220 kbps     03:32:21.353    34,479 kbps     03:32:20.102    30,690 kbps     03:32:20.018    98,699 bytes    546,113 bytes   03:32:48.505    
34              3:33:55.197     0:06:15.458     21,502 kbps     28,521 kbps     03:37:26.825    28,034 kbps     03:37:25.073    27,825 kbps     03:37:20.861    112,100 bytes   331,356 bytes   03:34:42.703    
35              3:40:10.655     0:06:21.297     20,033 kbps     28,691 kbps     03:41:30.985    26,636 kbps     03:41:30.985    24,686 kbps     03:41:27.607    104,445 bytes   368,655 bytes   03:46:31.953    
36              3:46:31.953     0:05:34.459     20,371 kbps     32,266 kbps     03:46:31.953    30,447 kbps     03:51:32.253    28,955 kbps     03:51:27.957    106,203 bytes   416,905 bytes   03:47:02.775    
37              3:52:06.412     0:05:33.499     20,322 kbps     32,660 kbps     03:57:25.522    27,970 kbps     03:54:03.154    27,236 kbps     03:53:58.566    105,951 bytes   383,174 bytes   03:54:43.611    
38              3:57:39.912     0:05:59.859     20,605 kbps     27,256 kbps     03:59:17.843    24,661 kbps     03:59:16.175    23,761 kbps     03:59:15.215    107,427 bytes   357,286 bytes   03:59:28.937    
39              4:03:39.771     0:05:21.571     20,400 kbps     25,721 kbps     04:07:41.388    24,137 kbps     04:07:39.552    23,286 kbps     04:06:06.751    106,358 bytes   363,040 bytes   04:06:09.212    
40              4:09:01.343     0:12:36.297     19,043 kbps     39,335 kbps     04:13:05.461    34,128 kbps     04:13:02.375    29,285 kbps     04:12:57.453    99,289 bytes    633,028 bytes   04:21:13.991    

STREAM DIAGNOSTICS:

File            PID             Type            Codec           Language                Seconds                 Bitrate                 Bytes           Packets         
----            ---             ----            -----           --------                --------------          --------------          -------------   -----           
00074.M2TS      4113 (0x1011)   0x1B            AVC                                     3413.744                19,987                  8,529,023,223   46,400,787      
00074.M2TS      4352 (0x1100)   0x86            DTS-HD MA       eng (English)           3413.744                1,763                   752,237,336     4,614,075       
00074.M2TS      4353 (0x1101)   0x86            DTS-HD MA       eng (English)           3413.744                1,590                   678,609,272     4,234,745       
00074.M2TS      4608 (0x1200)   0x90            PGS             eng (English)           3413.744                33                      14,270,643      82,514          
00075.M2TS      4113 (0x1011)   0x1B            AVC                                     3009.673                19,983                  7,517,949,306   40,900,161      
00075.M2TS      4352 (0x1100)   0x86            DTS-HD MA       eng (English)           3009.673                1,730                   650,671,028     3,997,401       
00075.M2TS      4353 (0x1101)   0x86            DTS-HD MA       eng (English)           3009.673                1,583                   595,670,916     3,718,463       
00075.M2TS      4608 (0x1200)   0x90            PGS             eng (English)           3009.673                31                      11,823,383      68,253          
00076.M2TS      4113 (0x1011)   0x1B            AVC                                     3022.937                19,994                  7,554,986,704   41,101,558      
00076.M2TS      4352 (0x1100)   0x86            DTS-HD MA       eng (English)           3022.937                1,720                   649,861,912     3,989,988       
00076.M2TS      4353 (0x1101)   0x86            DTS-HD MA       eng (English)           3022.937                1,580                   597,144,120     3,723,868       
00076.M2TS      4608 (0x1200)   0x90            PGS             eng (English)           3022.937                34                      12,754,108      73,597          
00080.M2TS      4113 (0x1011)   0x1B            AVC                                     2979.268                19,992                  7,445,155,342   40,504,059      
00080.M2TS      4352 (0x1100)   0x86            DTS-HD MA       eng (English)           2979.268                1,811                   674,406,512     4,127,143       
00080.M2TS      4353 (0x1101)   0x86            DTS-HD MA       eng (English)           2979.268                1,592                   593,059,308     3,695,322       
00080.M2TS      4608 (0x1200)   0x90            PGS             eng (English)           2979.268                40                      14,794,932      84,920          
00081.M2TS      4113 (0x1011)   0x1B            AVC                                     3271.185                19,999                  8,177,646,498   44,488,858      
00081.M2TS      4352 (0x1100)   0x86            DTS-HD MA       eng (English)           3271.185                1,843                   753,507,804     4,601,260       
00081.M2TS      4353 (0x1101)   0x86            DTS-HD MA       eng (English)           3271.185                1,588                   649,506,016     4,048,091       
00081.M2TS      4608 (0x1200)   0x90            PGS             eng (English)           3271.185                32                      12,904,907      74,370

Last edited by McCrutchy; 07-30-2019 at 12:12 PM.
  Reply With Quote
Thanks given by:
Gomephrus (08-01-2019), hiwilliam (07-29-2019)
Old 07-29-2019, 06:17 AM   #7
McCrutchy McCrutchy is online now
Contributor
 
McCrutchy's Avatar
 
Dec 2008
East Coast, USA
2
701
5128
200
5
16
Default

I can only assume this being a Sony Australia release is the reason why the set is only two discs when it has 527 minutes of main content (most Sony releases would go to three discs for such a release) and why there are both 5.1 and 2.0 audio tracks when Sony usually never offers the latter for native 5.1 TV releases.

I've watched two episodes so far, and generally, the video quality is very good and on par with other Sony releases, except for a bit of banding that I've noticed, and less of the three-dimensional color depth I have seen on other Sony TV releases (I notice this release lacks the Sony SBMV logo, so perhaps the Super Bit Mapping process wasn't applied to this Blu-ray.).

If Sony doesn't indulge internationally, and I don't think they will, then hopefully Sony Australia will persevere with releasing future seasons in Australia. It's very strange that this first season release is only being sold in such a limited fashion, however.
  Reply With Quote
Thanks given by:
Gomephrus (08-01-2019), hiwilliam (07-29-2019)
Old 08-05-2019, 04:02 AM   #8
neo_reloaded neo_reloaded is offline
Banned
 
Jan 2008
416
72
Default

Even on Amazon.com.au, this is only sold from a third-party seller. Where is a single "official" location to purchase this release?
  Reply With Quote
Old 08-17-2019, 09:04 PM   #9
CrazyBlu-RayFan CrazyBlu-RayFan is offline
Blu-ray Samurai
 
CrazyBlu-RayFan's Avatar
 
Sep 2012
Colorado
156
720
8
3
74
Default

Is it possible this could be a MOD release? Similar to various Sony, Universal and Warner Archive releases in the USA. That's why it's limited in stock.
  Reply With Quote
Old 08-17-2019, 09:54 PM   #10
LordCrumb LordCrumb is offline
Moderator
 
LordCrumb's Avatar
 
May 2009
New Zealand
4
375
2961
109
12
67
Default

No, we don't do MOD in Australia. If we did, the price would be much, much higher.
  Reply With Quote
Old 08-17-2019, 10:22 PM   #11
CrazyBlu-RayFan CrazyBlu-RayFan is offline
Blu-ray Samurai
 
CrazyBlu-RayFan's Avatar
 
Sep 2012
Colorado
156
720
8
3
74
Default

Quote:
Originally Posted by LordCrumb View Post
No, we don't do MOD in Australia. If we did, the price would be much, much higher.
Interesting, thanks for confirming this. Then I have no idea why it's so limited.
  Reply With Quote
Old 08-17-2019, 11:17 PM   #12
BerryTheMusicMan BerryTheMusicMan is offline
Blu-ray Samurai
 
BerryTheMusicMan's Avatar
 
Jan 2016
1156
5907
509
1530
3
19
7
Default

Loved the show , think I'll get it and hope season 2 hits BD .
  Reply With Quote
Old 08-18-2019, 01:04 AM   #13
Filmmaker Filmmaker is offline
Banned
 
Aug 2009
Tulsa, OK (but don't hold it against me!)
90
709
2441
591
24
Default

Quote:
Originally Posted by CrazyBlu-RayFan View Post
Is it possible this could be a MOD release? Similar to various Sony, Universal and Warner Archive releases in the USA. That's why it's limited in stock.
If, by MOD, you mean a BD-R, itís definitely pressed discs.

Quote:
Originally Posted by BerryTheMusicMan View Post
Loved the show , think I'll get it and hope season 2 hits BD .
Thatís the best way to ensure it has the best chance of doing so.
  Reply With Quote
Old 08-18-2019, 03:37 AM   #14
CrazyBlu-RayFan CrazyBlu-RayFan is offline
Blu-ray Samurai
 
CrazyBlu-RayFan's Avatar
 
Sep 2012
Colorado
156
720
8
3
74
Default

Quote:
Originally Posted by Filmmaker View Post
If, by MOD, you mean a BD-R, it’s definitely pressed discs.



That’s the best way to ensure it has the best chance of doing so.
I mean MOD like Warner Archive, pressed but a smaller amount made to just meet demand. I know it was pressed, I got it a couple days ago.

Last edited by CrazyBlu-RayFan; 08-18-2019 at 05:42 AM.
  Reply With Quote
Thanks given by:
Filmmaker (08-18-2019)
Old 08-19-2019, 06:33 AM   #15
CrazyBlu-RayFan CrazyBlu-RayFan is offline
Blu-ray Samurai
 
CrazyBlu-RayFan's Avatar
 
Sep 2012
Colorado
156
720
8
3
74
Default

If they do a release of Season 2, it probably won't be until next April, similar to Season 1 (the USA DVD was in August 2018, this Blu-ray was April 2019. Season 2 just got its USA DVD this August). Here's hoping they keep releasing the show.
  Reply With Quote
Thanks given by:
russkie (10-18-2019)
Old 08-21-2019, 10:34 PM   #16
BerryTheMusicMan BerryTheMusicMan is offline
Blu-ray Samurai
 
BerryTheMusicMan's Avatar
 
Jan 2016
1156
5907
509
1530
3
19
7
Default

Mine arrived today .
  Reply With Quote
Old 10-18-2019, 05:37 PM   #17
russkie russkie is offline
Active Member
 
russkie's Avatar
 
Apr 2011
Kansas
34
4855
704
2
Default

I just finished watching season 1 Blu-ray. So much wanting to watch season 2 but I will not succumb to buying the DVD. I will wait for the Blu-ray edition. If they follow the same release schedule that was done on season 1, I'm hopeful for season 2 Blu-ray in the spring of next year

Last edited by russkie; 10-19-2019 at 10:00 AM.
  Reply With Quote
Old 10-19-2019, 02:41 AM   #18
Filmmaker Filmmaker is offline
Banned
 
Aug 2009
Tulsa, OK (but don't hold it against me!)
90
709
2441
591
24
Default

Quote:
Originally Posted by russkie View Post
I just finished watching season 1 Blu-ray. So much wanting to season 2 but I will not succumb to buying the DVD but will wait for the Blu-ray edition. If they follow the same release schedule that was done on season 1, I'm hopeful for season 2 Blu-ray in the spring of next year
Same here. Iím very curious to see if these Australian exclusives sold well enough to warrant further physical releases.
  Reply With Quote
Old 11-04-2019, 12:11 AM   #19
DawnShadow DawnShadow is offline
Blu-ray Samurai
 
Aug 2014
90
833
181
1
140
Default

Season 2 available now:
https://forum.blu-ray.com/showthread.php?p=17019134
  Reply With Quote
Old 10-08-2020, 05:00 PM   #20
Cevolution Cevolution is offline
Banned
 
Nov 2010
Sydney, Australia
23
668
3104
8
Default

I noticed that the Blu-ray of season one of this is being sold on kicks.com.au:

https://www.kicks.com.au/product/mr_...ason_1_blu_ray

I wonder how long it's been on their website, has anyone noticed it on kicks before? It's currently more expensive than DVDshop on Amazon au, but it might drop lower on kicks at some point, so those that are interested might want to keep an eye on it.

It would be interesting to know whether there is a limit on Random Space Media's exclusivity. Perhaps eventually we will see the other seasons of Mr. Mercedes on Blu-ray, as well as the Blu-ray's of Cobra Kai, on kicks.com.au too. Or Maybe it's on Universal Sony's Kicks website because they are wanting to clear stock, and it will soon be out of print

Last edited by Cevolution; 10-08-2020 at 05:17 PM. Reason: Inserted 3 words.
  Reply With Quote
Reply
Go Back   Blu-ray Forum > Movies > Blu-ray Movies - International > Australia


Thread Tools
Display Modes

Posting Rules
You may not post new threads
You may not post replies
You may not post attachments
You may not edit your posts

BB code is On
Smilies are On
[IMG] code is On
HTML code is Off

Forum Jump


All times are GMT. The time now is 11:56 AM.