Best Blu-ray Movie Deals


Best Blu-ray Movie Deals, See All the Deals »
Top deals | New deals  
 All countries United States United Kingdom Canada Germany France Spain Italy Australia Netherlands Japan Mexico
Willy Wonka & the Chocolate Factory 4K (Blu-ray)
$25.99
4 hrs ago
Space Jam 4K (Blu-ray)
$25.99
21 hrs ago
Parks and Recreation: The Complete Series (Blu-ray)
$74.99
3 hrs ago
Drive (Blu-ray)
$27.99
1 day ago
The Twilight Zone: The Complete Series (Blu-ray)
$41.24
 
Godzilla vs. Kong 4K (Blu-ray)
$42.99
 
Tremors (Blu-ray)
$28.10
8 hrs ago
Dragonheart: 5-Movie Collection (Blu-ray)
$19.99
 
The Last Starfighter (Blu-ray)
$18.60
8 hrs ago
The Hobbit: The Motion Picture Trilogy 4K (Blu-ray)
$73.43
1 day ago
Final Fantasy VII: Advent Children Complete 4K (Blu-ray)
$24.49
 
Saw 4K (Blu-ray)
$15.99
10 hrs ago
What's your next favorite movie?
Join our movie community to find out


Image from: Life of Pi (2012)

Go Back   Blu-ray Forum > Movies > Blu-ray Movies - North America

Reply
 
Thread Tools Display Modes
Old 11-08-2006, 09:17 AM   #1
benes benes is offline
Member
 
Nov 2006
Default

.

Last edited by benes; 10-12-2016 at 07:14 PM.
  Reply With Quote
Old 11-08-2006, 09:30 AM   #2
WriteSimply WriteSimply is offline
Blu-ray Ninja
 
Sep 2006
Kuala Lumpur, Malaysia
Send a message via Yahoo to WriteSimply Send a message via Skype™ to WriteSimply
Default

Thanks for posting. Keep it up to date. You might even want to post it as a seperate file for easier downloading or browsing.

What's interesting to note is the presence of 2 BD50 titles there: Click and Unforgiven. Click has a bitrate of 38.32Mbps on MPEG-2 and using up 42.92GB. Unforgiven has 17.12Mbps on VC-1 and using up 41.31GB.

So the big question is what is eating up the space on Unforgiven on BD50? Certainly not TrueHD!


fuad
  Reply With Quote
Old 11-08-2006, 09:17 AM   #3
benes benes is offline
Member
 
Nov 2006
Default

.

Last edited by benes; 10-12-2016 at 07:14 PM.
  Reply With Quote
Old 03-05-2007, 05:22 AM   #4
Cadilicsp Cadilicsp is offline
Junior Member
 
Mar 2007
Default

Quote:
Originally Posted by benes View Post
Code:
													   Scanned	   Listed	  Calculated
Title					Codec	Length	Movie Size	Disc Size	Total Bitrate	Video Bitrate	Video Bitrate	Video Bitrate	Main Audio Track
-----					------	-------	--------------	--------------	-------------	-------------	-------------	-------------	-----------------------
Mission: Impossible Ultimate Missions Collection
	Mission: Impossible		MPEG-2	1:50:12	19,732,291,584	23,174,170,188	23.8745209727	    20.63			21.8265209727	DD AC3 5.1  640Kbps
	Mission: Impossible II		MPEG-2	2:03:35	19,211,538,432	23,459,204,026	20.7272161100	    17.39			18.4872161100	DD AC3 5.1  640Kbps
	Mission: Impossible III		MPEG-2	2:05:24	23,152,963,584	23,968,278,600	24.6177177926	    21.09			22.3777177926	DD AC3 5.1  640Kbps
Monster House				MPEG-2	1:30:38	20,194,351,104	23,789,809,848	29.7084973946	    21.67			23.2764973946	LPCM   5.1 4608Kbps
The Omen (2006)				MPEG-2	1:49:49	20,324,032,512	23,594,464,244	24.6763181205	    17.91	     18		19.3643181205	DTS-HD Master Audio 5.1
Open Season (2006)			AVC	1:26:15	18,219,171,840	24,923,677,482	28.1649033275	    20.42			21.8929033275	LPCM   5.1 4608Kbps
Pearl Harbor				MPEG-2	3:03:09	42,218,323,968	47,568,993,406	30.7349705836	    20.83			22.4149705836	LPCM   5.1 6912Kbps 24-bit
The Phantom of the Opera (2004)		VC1	2:21:05	18,751,180,800	24,702,742,806	17.7211395629					16.3131395629	DD AC3 5.1  640Kbps
The Prestige				AVC	2:10:26													LPCM   5.1 6912Kbps 24-bit
The Punisher (2004)			MPEG-2	2:03:26	20,608,425,984	21,372,515,926	22.2613297153	    18.87			20.0483297153	DTS-ES 6.1 1509Kbps / DD AC3 5.1-EX 640Kbps
Reds					MPEG-2	3:15:16	44,242,034,688	49,343,703,600	30.2096515452	    27.28			28.8656515452	DD AC3 5.1  640Kbps
	Disc 1				MPEG-2	1:43:58	23,713,167,360	24,581,504,304	30.4112438089	    27.46			29.0672438089	DD AC3 5.1  640Kbps
	Disc 2				MPEG-2	1:31:18	20,528,867,328	24,762,199,296	29.9800910230	    27.08			28.6360910230	DD AC3 5.1  640Kbps
Reign of Fire				AVC	1:41:57~20,312,236,032 ~24,486,412,288 ~26.5649645669				       ~19.9409645669	LPCM   5.1 4608Kbps
Resident Evil: Apocalypse		MPEG-2	1:33:48													LPCM   5.1 4608Kbps
Rising Sun				AVC	2:09:25	23,057,713,152	24,650,836,742	23.7555319016	    18.23	     18		19.1475319016	DTS-HD Master Audio 5.1
Rocky					MPEG-2	1:59:35	21,625,233,408	23,144,062,834	24.1117585036	    18.32	     18		19.0557585036	DTS-HD Master Audio 5.1
Sahara (2005)				MPEG-2	2:04:03	21,029,259,264	24,790,387,768	22.6029926255	    17.27			18.6619926255	DTS    5.1 1509Kbps / DD AC3 5.1 640Kbps
Saw					MPEG-2	1:42:46	21,226,168,320	21,985,405,766	27.5396280506	    23.92			25.3266280506	DTS-ES 6.1 1509Kbps / DD AC3 5.1-EX 640Kbps
Saw II					MPEG-2	1:34:32													?DTS-HD 6.1 3039Kbps?
The Searchers				VC1	1:58:47	22,701,508,608	27,221,416,902	25.4822602587					24.5862602587	DD AC3 1.0  192Kbps
Silent Hill				MPEG-2	2:05:30	21,397,248,000	22,826,451,182	22.7328000000	    16.24			17.4208000000	LPCM   5.1 4608Kbps
Sky Captain and the World of Tomorrow	MPEG-2	1:46:36	18,967,953,408	24,254,994,344	23.7247697410	    18.37			19.7837697410	DTS    5.1 1509Kbps / DD AC3 5.1 640Kbps
Sleepy Hollow				MPEG-2	1:45:30	21,099,294,720	24,079,571,080	26.6657753175	    21.43			22.9167753175	DTS    5.1 1509Kbps / DD AC3 5.1 640Kbps
Space Cowboys				MPEG-2	2:10:26													DD AC3 5.1  640Kbps
Species					MPEG-2	1:48:26	20,425,402,368	23,447,894,698	25.1157729701	    17.18			18.5877729701	LPCM   5.1 4608Kbps
Speed					AVC	1:55:53	20,970,221,568	23,804,412,914	24.1279695878	    18.14	     14		19.2959695878	DTS-HD Master Audio 5.1
Stargate: Extended Cut			MPEG-2	2:09:59	23,214,471,168	23,893,410,620	23.8127669372	    18.49			19.8777669372	DTS-HD 6.1 3039Kbps
Stealth					MPEG-2	2:00:43	21,515,261,952	22,649,410,646	23.7639231832	    16.73			18.0039231832	LPCM   5.1 4608Kbps
Stir of Echoes				MPEG-2	1:39:07	21,711,697,920	23,321,682,220	29.2069250647	    23.61			25.2719250647	DTS-HD 6.1 3039Kbps
Superman: Special Edition		VC1	2:31:25	24,979,249,152	29,749,466,608	21.9960366776					19.7560366776	DD AC3 5.1  640Kbps
Superman II: The Richard Donner Cut	VC1	1:55:52	19,211,200,512	20,718,109,456	22.1072503014					21.4032503014	DD AC3 5.1  384Kbps
Superman Returns			VC1	2:34:19	20,626,040,832	28,898,105,064	17.8213982779					15.7733982779	DD AC3 5.1  640Kbps
S.W.A.T.				MPEG-2	1:57:16	20,937,848,832	22,736,532,830	23.8065364775	    16.28			17.6625364775	LPCM   5.1 4608Kbps
Swordfish				VC1	1:39:15	17,242,951,680	20,348,598,040	23.1643347506					21.3083347506	DD AC3 5.1  640Kbps
Syriana					VC1	2:07:44	15,828,695,040	19,739,399,356	16.5226461795					14.8586461795	DD AC3 5.1  640Kbps
Tears of the Sun			MPEG-2	2:00:55	21,671,239,680	23,712,441,076	23.8966116388	    16.15			17.6246116388	LPCM   5.1 4608Kbps
The Terminator				MPEG-2	1:47:13	20,905,408,512	24,740,859,358	25.9977099480	    18.54			19.8537099480	LPCM   5.1 4608Kbps
Terminator 2: Judgment Day		MPEG-2	2:16:35	23,357,331,456	24,466,699,874	22.8015438252	    18.92			20.1725438252	DTS-ES 5.1 1509Kbps / DD AC3 5.1-EX 640Kbps
Total Recall				MPEG-2	1:53:20	23,919,777,792	24,975,593,362	28.1409150494	    22.82			24.3979150494	DTS-HD 6.1 3039Kbps
Training Day				MPEG-2	2:02:02	15,031,695,360	17,907,066,290	16.4235950396	    13.63			14.6315950396	DD AC3 5.1  640Kbps
The Transporter				MPEG-2	1:32:09	17,931,257,856	20,914,253,114	25.9450285491	    18.82	     18		20.6970285491	DTS-HD Master Audio 5.1
Transporter 2				MPEG-2	1:27:38	19,325,011,968	22,803,976,612	29.4028329676	    22.32	     18		24.3468329676	DTS-HD Master Audio 5.1
Ultraviolet: PG-13 Theatrical Cut	MPEG-2	1:27:28	18,001,569,792	21,291,873,672	27.4414173658	    19.59			21.0414173658	LPCM   5.1 4608Kbps
Under Siege				VC1	1:42:31	18,913,904,640	19,212,775,806	24.5994532791					22.9994532791	DD AC3 5.1  640Kbps
Underworld: Evolution			MPEG-2	1:46:24	19,102,205,952	24,234,741,878	23.9376014436	    16.42			17.6656014436	LPCM   5.1 4608Kbps
Unforgiven				VC1	2:10:40	17,973,098,496	29,480,045,390	18.3398964244					16.9958964244	DD AC3 5.1  640Kbps
We Were Soldiers			MPEG-2	2:18:29													DTS-ES 6.1 1509Kbps / DD AC3 5.1-EX 640Kbps
The Wicker Man: Unrated (2006)		VC1	1:41:55													DD AC3 5.1  640Kbps
The Wild				AVC	1:21:35	18,227,724,288 ~21,471,311,994	29.7838632156	    19.24			20.7918632156	LPCM   5.1 6912Kbps 24-bit
X-Men: The Last Stand			AVC	1:44:05	21,519,777,792	24,434,402,742	27.5673694693	    19.82	     18		22.0313694693	DTS-HD Master Audio 6.1
xXx					MPEG-2	2:04:08	22,529,488,896	23,955,979,790	24.1992361933	    17.23			18.4392361933	LPCM   5.1 4608Kbps
sizes in bytes
bitrates in megabits per second (Mbps)
All AC3 tracks are 48 kHz/16-bit
All DTS tracks are 48 kHz/24-bit
All LPCM tracks are 48 kHz/16-bit unless otherwise noted

* split into two files
** split into three files
very cool .Great.
  Reply With Quote
Old 03-05-2007, 03:14 PM   #5
Zinn Zinn is offline
Active Member
 
Oct 2006
Sweden
Default

How big is a 7.1 96kHz/24 track (in GB) per hour, PCM vs. DD TrueHD?

And how big is a movie in 2.40:1 aspect in AVC with 30 mbit/s per hour?

Last edited by Zinn; 03-05-2007 at 03:16 PM.
  Reply With Quote
Old 03-05-2007, 04:59 PM   #6
PeterTHX PeterTHX is offline
Blu-ray Count
 
PeterTHX's Avatar
 
Sep 2006
561
12
Default

Benes:
Just a quick note...since no actual rates for this title are listed.
Space Cowboys main feature is VC-1 with the extras in 480i/p
MPEG2 (another Warner conversion).
  Reply With Quote
Old 06-03-2009, 09:53 AM   #7
equivalent equivalent is offline
Junior Member
 
Feb 2009
1
Default

The 7th Voyage Of Sinbad (US)

<--- BEGIN FORUMS PASTE --->
Code:
                                                                                                                Total   Video                                             
Title                                                           Codec   Length  Movie Size      Disc Size       Bitrate Bitrate Main Audio Track                          Secondary Audio Track
-----                                                           ------  ------- --------------  --------------  ------- ------- ------------------                        ---------------------
00001.MPLS                                                      AVC     1:28:09 24,905,730,048  32,935,308,405  37.67   28.95   Dolby TrueHD 5.1 1463Kbps (48kHz/16-bit)
Code:
DISC INFO:

Disc Title:     7TH_VOYAGE_OF_SINBAD
Disc Size:      32,935,308,405 bytes
Protection:     AACS
BD-Java:        Yes
BDInfo:         0.5.2

PLAYLIST REPORT:

Name:                   00001.MPLS
Size:                   24,905,730,048 bytes
Length:                 1:28:09 (h:m:s)
Total Bitrate:          37.67 Mbps
Description:            

VIDEO:

Codec                   Bitrate             Description     
-----                   -------             -----------     
MPEG-4 AVC Video        28952 kbps          1080p / 23.976 fps / 16:9 / High Profile 4.1

AUDIO:

Codec                           Language        Bitrate         Description     
-----                           --------        -------         -----------     
Dolby TrueHD Audio              English         1463 kbps       5.1 / 48 kHz / 1463 kbps / 16-bit (AC3 Core: 5.1 / 48 kHz / 640 kbps)
Dolby TrueHD Audio              French          1400 kbps       5.1 / 48 kHz / 1400 kbps / 16-bit (AC3 Core: 5.1 / 48 kHz / 640 kbps)
Dolby Digital Audio             Thai            640 kbps        5.1 / 48 kHz / 640 kbps
Dolby Digital Audio             English         192 kbps        2.0 / 48 kHz / 192 kbps
Dolby Digital Audio             English         192 kbps        2.0 / 48 kHz / 192 kbps / Dolby Surround

SUBTITLES:

Codec                           Language        Bitrate         Description     
-----                           --------        -------         -----------     
Presentation Graphics           English         22.298 kbps                     
Presentation Graphics           English         16.500 kbps                     
Presentation Graphics           Chinese         22.956 kbps                     
Presentation Graphics           French          18.675 kbps                     
Presentation Graphics           Indonesian      24.107 kbps                     
Presentation Graphics           Korean          13.430 kbps                     
Presentation Graphics           Korean          46.552 kbps                     
Presentation Graphics           Spanish         22.691 kbps                     
Presentation Graphics           Spanish         61.470 kbps                     
Presentation Graphics           Thai            17.826 kbps                     

FILES:

Name            Time In         Length          Size            Total Bitrate   
----            -------         ------          ----            -------------   
00011.M2TS      0:00:00.000     1:28:09.284     24,905,730,048  37,670          

CHAPTERS:

Number          Time In         Length          Avg Video Rate  Max 1-Sec Rate  Max 1-Sec Time  Max 5-Sec Rate  Max 5-Sec Time  Max 10Sec Rate  Max 10Sec Time  Avg Frame Size  Max Frame Size  Max Frame Time  
------          -------         ------          --------------  --------------  --------------  --------------  --------------  --------------  --------------  --------------  --------------  --------------  
1               0:00:00.000     0:06:45.988     28,699 kbps     52,263 kbps     00:05:06.597    35,800 kbps     00:05:06.597    33,913 kbps     00:05:06.639    149,608 bytes   672,265 bytes   00:05:06.806    
2               0:06:45.988     0:03:29.959     31,343 kbps     39,798 kbps     00:09:00.748    35,525 kbps     00:08:57.495    34,124 kbps     00:08:57.036    163,407 bytes   406,290 bytes   00:08:57.537    
3               0:10:15.948     0:07:32.743     28,276 kbps     39,134 kbps     00:16:14.139    35,186 kbps     00:16:10.135    33,841 kbps     00:15:03.402    147,418 bytes   433,574 bytes   00:15:03.485    
4               0:17:48.692     0:03:18.406     28,642 kbps     36,417 kbps     00:19:45.767    32,520 kbps     00:19:45.767    31,058 kbps     00:19:45.767    149,324 bytes   406,139 bytes   00:19:04.226    
5               0:21:07.099     0:06:13.331     28,278 kbps     44,603 kbps     00:25:20.185    31,903 kbps     00:25:56.888    31,675 kbps     00:27:06.416    147,429 bytes   513,491 bytes   00:25:21.019    
6               0:27:20.430     0:04:58.172     29,147 kbps     37,232 kbps     00:27:26.936    34,383 kbps     00:30:04.385    33,116 kbps     00:29:59.380    151,961 bytes   478,794 bytes   00:29:51.456    
7               0:32:18.603     0:05:33.666     29,379 kbps     38,054 kbps     00:34:16.262    34,202 kbps     00:34:24.520    33,734 kbps     00:34:41.245    153,171 bytes   413,448 bytes   00:36:53.711    
8               0:37:52.270     0:04:26.224     28,476 kbps     49,982 kbps     00:41:26.901    34,986 kbps     00:41:26.984    34,276 kbps     00:41:26.984    148,460 bytes   476,553 bytes   00:41:27.276    
9               0:42:18.494     0:05:10.059     28,957 kbps     36,177 kbps     00:43:33.902    33,276 kbps     00:43:24.893    32,197 kbps     00:43:25.185    150,968 bytes   469,711 bytes   00:43:25.227    
10              0:47:28.554     0:05:55.271     28,985 kbps     39,178 kbps     00:48:28.238    33,987 kbps     00:48:50.093    33,252 kbps     00:48:44.379    151,116 bytes   447,428 bytes   00:50:31.486    
11              0:53:23.825     0:07:04.549     29,187 kbps     37,171 kbps     00:55:51.723    32,247 kbps     00:53:43.637    31,778 kbps     00:53:56.983    152,165 bytes   455,083 bytes   00:57:08.967    
12              1:00:28.374     0:06:22.423     29,423 kbps     40,499 kbps     01:04:48.634    34,973 kbps     01:06:25.523    34,104 kbps     01:06:24.480    153,399 bytes   448,925 bytes   01:06:35.658    
13              1:06:50.798     0:06:00.193     28,745 kbps     37,973 kbps     01:07:17.867    32,820 kbps     01:07:14.780    31,984 kbps     01:08:02.161    149,863 bytes   478,443 bytes   01:07:17.908    
14              1:12:50.991     0:03:38.801     29,221 kbps     36,317 kbps     01:14:51.403    31,777 kbps     01:15:22.059    31,510 kbps     01:15:33.904    152,343 bytes   376,746 bytes   01:15:27.022    
15              1:16:29.793     0:08:28.799     28,293 kbps     39,803 kbps     01:23:47.480    36,478 kbps     01:18:10.602    34,496 kbps     01:18:08.225    147,507 bytes   445,967 bytes   01:17:26.516    
16              1:24:58.593     0:03:10.690     30,022 kbps     49,323 kbps     01:27:57.438    34,527 kbps     01:26:10.623    33,900 kbps     01:26:15.086    156,591 bytes   442,263 bytes   01:27:57.563    

STREAM DIAGNOSTICS:

File            PID             Type            Codec           Language                Seconds                 Bitrate                 Bytes           Packets         
----            ---             ----            -----           --------                --------------          --------------          -------------   -----           
00011.M2TS      4113 (0x1011)   0x1B            AVC                                     5289.201                28,953                  19,141,965,602  104,106,917     
00011.M2TS      4352 (0x1100)   0x83            TrueHD          eng (English)           5289.201                2,103                   1,390,649,996   10,316,382      
00011.M2TS      4353 (0x1101)   0x81            AC3             eng (English)           5289.201                192                     126,943,488     826,455         
00011.M2TS      4354 (0x1102)   0x83            TrueHD          fra (French)            5289.201                2,040                   1,348,560,070   9,967,382       
00011.M2TS      4355 (0x1103)   0x81            AC3             tha (Thai)              5289.201                640                     423,144,960     2,479,365       
00011.M2TS      4356 (0x1104)   0x81            AC3             eng (English)           5289.201                192                     126,943,488     826,455         
00011.M2TS      4608 (0x1200)   0x90            PGS             eng (English)           5289.201                22                      14,742,361      84,644          
00011.M2TS      4609 (0x1201)   0x90            PGS             eng (English)           5289.201                17                      10,909,115      64,368          
00011.M2TS      4610 (0x1202)   0x90            PGS             fra (French)            5289.201                19                      12,346,980      71,801          
00011.M2TS      4611 (0x1203)   0x90            PGS             spa (Spanish)           5289.201                23                      15,002,178      86,044          
00011.M2TS      4612 (0x1204)   0x90            PGS             ind (Indonesian)        5289.201                24                      15,938,622      91,040          
00011.M2TS      4613 (0x1205)   0x90            PGS             kor (Korean)            5289.201                13                      8,879,368       52,614          
00011.M2TS      4614 (0x1206)   0x90            PGS             zho (Chinese)           5289.201                23                      15,177,348      87,002          
00011.M2TS      4615 (0x1207)   0x90            PGS             tha (Thai)              5289.201                18                      11,786,046      68,573          
00011.M2TS      4616 (0x1208)   0x90            PGS             spa (Spanish)           5289.201                61                      40,641,802      232,343         
00011.M2TS      4617 (0x1209)   0x90            PGS             kor (Korean)            5289.201                47                      30,778,516      178,749
<---- END FORUMS PASTE ---->

QUICK SUMMARY:

Disc Title: 7TH_VOYAGE_OF_SINBAD
Disc Size: 32,935,308,405 bytes
Protection: AACS
BD-Java: Yes
Playlist: 00001.MPLS
Size: 24,905,730,048 bytes
Length: 1:28:09
Total Bitrate: 37.67 Mbps
Video: MPEG-4 AVC Video / 28952 kbps / 1080p / 23.976 fps / 16:9 / High Profile 4.1
Audio: English / Dolby TrueHD Audio / 5.1 / 48 kHz / 1463 kbps / 16-bit (AC3 Core: 5.1 / 48 kHz / 640 kbps)
Audio: French / Dolby TrueHD Audio / 5.1 / 48 kHz / 1400 kbps / 16-bit (AC3 Core: 5.1 / 48 kHz / 640 kbps)
Audio: Thai / Dolby Digital Audio / 5.1 / 48 kHz / 640 kbps
Audio: English / Dolby Digital Audio / 2.0 / 48 kHz / 192 kbps
Audio: English / Dolby Digital Audio / 2.0 / 48 kHz / 192 kbps / Dolby Surround
Subtitle: English / 22.298 kbps
Subtitle: English / 16.500 kbps
Subtitle: Chinese / 22.956 kbps
Subtitle: French / 18.675 kbps
Subtitle: Indonesian / 24.107 kbps
Subtitle: Korean / 13.430 kbps
Subtitle: Korean / 46.552 kbps
Subtitle: Spanish / 22.691 kbps
Subtitle: Spanish / 61.470 kbps
Subtitle: Thai / 17.826 kbps
  Reply With Quote
Old 06-03-2009, 07:03 PM   #8
equivalent equivalent is offline
Junior Member
 
Feb 2009
1
Default

The Bed-Sitting Room (UK)

NOTE: DVDBeaver states the film is over 20Gb - it's not, that's the playlist entry combining all the extras - 3 HD interviews (00005.MPLS: 1h 35m 01s, 28.84 Mbps total bitrate, 24 Mbps Video bitrate, LPCM 2.0 2304Kbps (48kHz/24-bit)). The actual film (00000.MPLS) is just under 19Gb:

<--- BEGIN FORUMS PASTE --->
Code:
                                                                                                                Total   Video                                             
Title                                                           Codec   Length  Movie Size      Disc Size       Bitrate Bitrate Main Audio Track                          Secondary Audio Track
-----                                                           ------  ------- --------------  --------------  ------- ------- ------------------                        ---------------------
00000.MPLS                                                      AVC     1:31:13 18,898,307,520  39,910,233,848  27.62   24.00   LPCM 2.0 2304Kbps (48kHz/24-bit)
Code:
DISC INFO:

Disc Title:     BED_SITTING_ROOM
Disc Size:      39,910,233,848 bytes
Protection:     AACS
BD-Java:        No
BDInfo:         0.5.2

PLAYLIST REPORT:

Name:                   00000.MPLS
Size:                   18,898,307,520 bytes
Length:                 1:31:13 (h:m:s)
Total Bitrate:          27.62 Mbps
Description:            

VIDEO:

Codec                   Bitrate             Description     
-----                   -------             -----------     
MPEG-4 AVC Video        23999 kbps          1080p / 23.976 fps / 16:9 / High Profile 4.1

AUDIO:

Codec                           Language        Bitrate         Description     
-----                           --------        -------         -----------     
LPCM Audio                      English         2304 kbps       2.0 / 48 kHz / 2304 kbps / 24-bit

SUBTITLES:

Codec                           Language        Bitrate         Description     
-----                           --------        -------         -----------     
Presentation Graphics           English         43.868 kbps                     

FILES:

Name            Time In         Length          Size            Total Bitrate   
----            -------         ------          ----            -------------   
00000.M2TS      0:00:00.000     1:31:13.426     18,898,307,520  27,622          

CHAPTERS:

Number          Time In         Length          Avg Video Rate  Max 1-Sec Rate  Max 1-Sec Time  Max 5-Sec Rate  Max 5-Sec Time  Max 10Sec Rate  Max 10Sec Time  Avg Frame Size  Max Frame Size  Max Frame Time  
------          -------         ------          --------------  --------------  --------------  --------------  --------------  --------------  --------------  --------------  --------------  --------------  
1               0:00:00.000     0:07:44.547     23,157 kbps     37,677 kbps     00:01:54.781    32,961 kbps     00:01:52.362    29,121 kbps     00:02:12.590    120,708 bytes   394,089 bytes   00:01:05.732    
2               0:07:44.547     0:06:23.800     24,252 kbps     36,566 kbps     00:08:38.351    30,685 kbps     00:13:14.835    28,680 kbps     00:13:09.955    126,438 bytes   355,178 bytes   00:13:25.930    
3               0:14:08.347     0:06:35.186     24,187 kbps     39,017 kbps     00:19:55.235    32,725 kbps     00:17:05.816    29,114 kbps     00:17:05.190    126,100 bytes   352,931 bytes   00:16:56.223    
4               0:20:43.533     0:08:27.215     24,031 kbps     39,298 kbps     00:23:44.756    33,171 kbps     00:23:42.671    28,867 kbps     00:23:39.668    125,289 bytes   355,488 bytes   00:22:01.820    
5               0:29:10.748     0:08:57.745     23,370 kbps     39,437 kbps     00:30:25.740    35,696 kbps     00:30:25.490    29,538 kbps     00:29:32.437    121,842 bytes   381,884 bytes   00:33:32.051    
6               0:38:08.494     0:07:46.924     23,962 kbps     36,825 kbps     00:43:55.341    31,971 kbps     00:44:45.432    29,349 kbps     00:44:43.013    124,926 bytes   362,060 bytes   00:40:53.492    
7               0:45:55.419     0:07:47.592     23,267 kbps     38,201 kbps     00:48:28.947    29,320 kbps     00:47:34.518    27,357 kbps     00:47:32.766    121,302 bytes   362,589 bytes   00:49:41.520    
8               0:53:43.011     0:10:13.279     23,761 kbps     38,319 kbps     00:57:48.506    29,690 kbps     00:57:06.464    28,782 kbps     00:56:33.932    123,881 bytes   376,828 bytes   01:01:13.795    
9               1:03:56.290     0:08:35.056     24,015 kbps     40,013 kbps     01:06:49.338    39,116 kbps     01:06:46.377    37,414 kbps     01:06:44.959    125,201 bytes   361,031 bytes   01:07:17.199    
10              1:12:31.346     0:08:42.480     24,522 kbps     39,235 kbps     01:14:47.816    33,412 kbps     01:14:47.399    29,536 kbps     01:20:00.378    127,844 bytes   371,169 bytes   01:17:22.304    
11              1:21:13.827     0:08:38.434     28,559 kbps     42,331 kbps     01:21:57.704    36,753 kbps     01:26:08.454    34,499 kbps     01:25:02.347    148,895 bytes   363,969 bytes   01:24:15.341    
12              1:29:52.261     0:01:21.164     4,297 kbps      11,896 kbps     01:31:07.628    10,296 kbps     01:31:07.461    7,296 kbps      01:31:02.373    22,428 bytes    159,909 bytes   01:31:09.297    

STREAM DIAGNOSTICS:

File            PID             Type            Codec           Language                Seconds                 Bitrate                 Bytes           Packets         
----            ---             ----            -----           --------                --------------          --------------          -------------   -----           
00000.M2TS      4113 (0x1011)   0x1B            AVC                                     5473.343                23,999                  16,419,500,353  89,314,509      
00000.M2TS      4352 (0x1100)   0x80            LPCM            eng (English)           5473.343                2,310                   1,580,726,584   8,757,488       
00000.M2TS      4608 (0x1200)   0x90            PGS             eng (English)           5473.343                44                      30,013,443      173,338
<---- END FORUMS PASTE ---->

QUICK SUMMARY:

Disc Title: BED_SITTING_ROOM
Disc Size: 39,910,233,848 bytes
Protection: AACS
BD-Java: No
Playlist: 00000.MPLS
Size: 18,898,307,520 bytes
Length: 1:31:13
Total Bitrate: 27.62 Mbps
Video: MPEG-4 AVC Video / 23999 kbps / 1080p / 23.976 fps / 16:9 / High Profile 4.1
Audio: English / LPCM Audio / 2.0 / 48 kHz / 2304 kbps / 24-bit
Subtitle: English / 43.868 kbps

Last edited by equivalent; 06-04-2009 at 09:32 PM.
  Reply With Quote
Old 06-04-2009, 09:40 PM   #9
equivalent equivalent is offline
Junior Member
 
Feb 2009
1
Default

The following volume is the only one of the series I have, sorry...

Masters Of Horror: Season 1 Volume IV

EDIT: I have pasted individual episode specs below, but here are the averages for all 4 combined, in 'list' format:

Code:
									Video						Total
Title								Codec	Bitrate	Length	Movie Size	Disc Size	Bitrate	Main Audio Track		Secondary Audio Track
-----								------	-------	-------	--------------	--------------	-------	--------------------------	---------------------

Masters Of Horror: Season 1, Vol IV - 4 Episodes (1080i29.97)	AVC	20.23	4:01:31	49,128,400,896	49,705,164,706	27.12	LPCM 5.1 4608Kbps 16-bit	DD AC3 5.1 640Kbps
Individual episode specs:
(4 stories - 'Imprint', 'Haeckel's Tale', 'Homecoming' and 'Chocolate')

"Imprint"

<--- BEGIN FORUMS PASTE --->
Code:
                                                                                                                Total   Video                                             
Title                                                           Codec   Length  Movie Size      Disc Size       Bitrate Bitrate Main Audio Track                          Secondary Audio Track
-----                                                           ------  ------- --------------  --------------  ------- ------- ------------------                        ---------------------
00000.MPLS                                                      AVC     1:03:17 12,824,997,888  49,705,164,706  27.02   20.14   LPCM 5.1 4608Kbps (48kHz/16-bit)          DD AC3 5.1 640Kbps
Code:
DISC INFO:

Disc Title:     MASTERS_OF_HORROR
Disc Size:      49,705,164,706 bytes
Protection:     AACS
BD-Java:        No
BDInfo:         0.5.2

PLAYLIST REPORT:

Name:                   00000.MPLS
Size:                   12,824,997,888 bytes
Length:                 1:03:17 (h:m:s)
Total Bitrate:          27.02 Mbps
Description:            

VIDEO:

Codec                   Bitrate             Description     
-----                   -------             -----------     
MPEG-4 AVC Video        20141 kbps          1080i / 29.970 fps / 16:9 / High Profile 4.1

AUDIO:

Codec                           Language        Bitrate         Description     
-----                           --------        -------         -----------     
LPCM Audio                      English         4608 kbps       5.1 / 48 kHz / 4608 kbps / 16-bit
Dolby Digital Audio             English         640 kbps        5.1 / 48 kHz / 640 kbps
Dolby Digital Audio             English         192 kbps        2.0 / 48 kHz / 192 kbps

SUBTITLES:

Codec                           Language        Bitrate         Description     
-----                           --------        -------         -----------     
Presentation Graphics           English         19.967 kbps                     

FILES:

Name            Time In         Length          Size            Total Bitrate   
----            -------         ------          ----            -------------   
00000.M2TS      0:00:00.000     1:03:17.794     12,824,997,888  27,016          

CHAPTERS:

Number          Time In         Length          Avg Video Rate  Max 1-Sec Rate  Max 1-Sec Time  Max 5-Sec Rate  Max 5-Sec Time  Max 10Sec Rate  Max 10Sec Time  Avg Frame Size  Max Frame Size  Max Frame Time  
------          -------         ------          --------------  --------------  --------------  --------------  --------------  --------------  --------------  --------------  --------------  --------------  
1               0:00:00.000     0:01:15.508     31,311 kbps     48,197 kbps     00:00:01.968    34,400 kbps     00:00:29.696    33,389 kbps     00:00:50.683    130,534 bytes   490,870 bytes   00:00:06.706    
2               0:01:15.508     0:07:05.792     19,598 kbps     40,132 kbps     00:05:23.823    29,781 kbps     00:05:51.417    27,643 kbps     00:05:51.417    81,739 bytes    459,941 bytes   00:05:24.424    
3               0:08:21.300     0:08:40.887     20,115 kbps     35,527 kbps     00:16:23.282    28,016 kbps     00:14:41.013    27,436 kbps     00:14:40.980    83,896 bytes    607,625 bytes   00:09:42.148    
4               0:17:02.187     0:07:34.287     19,718 kbps     38,373 kbps     00:20:31.129    34,818 kbps     00:17:08.560    32,367 kbps     00:20:39.705    82,238 bytes    481,571 bytes   00:20:43.175    
5               0:24:36.475     0:09:33.639     21,330 kbps     33,194 kbps     00:32:03.888    28,245 kbps     00:31:59.817    27,518 kbps     00:31:54.812    88,964 bytes    456,838 bytes   00:32:53.738    
6               0:34:10.114     0:08:50.463     17,584 kbps     41,983 kbps     00:39:22.193    37,508 kbps     00:39:21.892    32,805 kbps     00:39:16.987    73,340 bytes    470,517 bytes   00:39:25.796    
7               0:43:00.578     0:18:55.134     20,278 kbps     51,628 kbps     00:55:10.640    35,078 kbps     00:48:52.829    32,060 kbps     00:48:52.863    84,577 bytes    559,503 bytes   00:58:06.416    
8               1:01:55.712     0:01:22.081     21,517 kbps     37,496 kbps     01:02:19.802    36,020 kbps     01:02:18.134    34,445 kbps     01:02:13.596    89,782 bytes    399,929 bytes   01:02:10.393    

STREAM DIAGNOSTICS:

File            PID             Type            Codec           Language                Seconds                 Bitrate                 Bytes           Packets         
----            ---             ----            -----           --------                --------------          --------------          -------------   -----           
00000.M2TS      4113 (0x1011)   0x1B            AVC                                     3797.727                20,141                  9,561,476,873   52,087,984      
00000.M2TS      4352 (0x1100)   0x81            AC3             eng (English)           3797.727                640                     303,825,920     1,780,230       
00000.M2TS      4353 (0x1101)   0x80            LPCM            eng (English)           3797.727                4,614                   2,190,568,156   12,152,944      
00000.M2TS      4354 (0x1102)   0x81            AC3             eng (English)           3797.727                192                     91,147,776      593,410         
00000.M2TS      4608 (0x1200)   0x90            PGS             eng (English)           3797.727                20                      9,478,885       55,035
<---- END FORUMS PASTE ---->

QUICK SUMMARY:

Disc Title: MASTERS_OF_HORROR
Disc Size: 49,705,164,706 bytes
Protection: AACS
BD-Java: No
Playlist: 00000.MPLS
Size: 12,824,997,888 bytes
Length: 1:03:17
Total Bitrate: 27.02 Mbps
Video: MPEG-4 AVC Video / 20141 kbps / 1080i / 29.970 fps / 16:9 / High Profile 4.1
Audio: English / LPCM Audio / 5.1 / 48 kHz / 4608 kbps / 16-bit
Audio: English / Dolby Digital Audio / 5.1 / 48 kHz / 640 kbps
Audio: English / Dolby Digital Audio / 2.0 / 48 kHz / 192 kbps
Subtitle: English / 19.967 kbps

"Haeckel's Tale"

<--- BEGIN FORUMS PASTE --->
Code:
                                                                                                                Total   Video                                             
Title                                                           Codec   Length  Movie Size      Disc Size       Bitrate Bitrate Main Audio Track                          Secondary Audio Track
-----                                                           ------  ------- --------------  --------------  ------- ------- ------------------                        ---------------------
00001.MPLS                                                      AVC     0:59:27 12,242,896,896  49,705,164,706  27.45   20.55   LPCM 5.1 4608Kbps (48kHz/16-bit)          DD AC3 5.1 640Kbps
Code:
DISC INFO:

Disc Title:     MASTERS_OF_HORROR
Disc Size:      49,705,164,706 bytes
Protection:     AACS
BD-Java:        No
BDInfo:         0.5.2

PLAYLIST REPORT:

Name:                   00001.MPLS
Size:                   12,242,896,896 bytes
Length:                 0:59:27 (h:m:s)
Total Bitrate:          27.45 Mbps
Description:            

VIDEO:

Codec                   Bitrate             Description     
-----                   -------             -----------     
MPEG-4 AVC Video        20551 kbps          1080i / 29.970 fps / 16:9 / High Profile 4.1

AUDIO:

Codec                           Language        Bitrate         Description     
-----                           --------        -------         -----------     
LPCM Audio                      English         4608 kbps       5.1 / 48 kHz / 4608 kbps / 16-bit
Dolby Digital Audio             English         640 kbps        5.1 / 48 kHz / 640 kbps
Dolby Digital Audio             English         192 kbps        2.0 / 48 kHz / 192 kbps

SUBTITLES:

Codec                           Language        Bitrate         Description     
-----                           --------        -------         -----------     
Presentation Graphics           English         29.827 kbps                     

FILES:

Name            Time In         Length          Size            Total Bitrate   
----            -------         ------          ----            -------------   
00001.M2TS      0:00:00.000     0:59:27.530     12,242,896,896  27,454          

CHAPTERS:

Number          Time In         Length          Avg Video Rate  Max 1-Sec Rate  Max 1-Sec Time  Max 5-Sec Rate  Max 5-Sec Time  Max 10Sec Rate  Max 10Sec Time  Avg Frame Size  Max Frame Size  Max Frame Time  
------          -------         ------          --------------  --------------  --------------  --------------  --------------  --------------  --------------  --------------  --------------  --------------  
1               0:00:00.000     0:01:15.708     30,437 kbps     42,532 kbps     00:00:06.673    34,991 kbps     00:00:06.673    33,926 kbps     00:00:06.673    126,892 bytes   441,401 bytes   00:01:02.962    
2               0:01:15.708     0:07:10.229     21,655 kbps     47,325 kbps     00:07:21.073    36,134 kbps     00:06:35.228    34,555 kbps     00:06:35.261    90,321 bytes    470,003 bytes   00:02:10.497    
3               0:08:25.938     0:05:06.839     20,832 kbps     41,317 kbps     00:09:09.615    30,720 kbps     00:09:42.214    27,881 kbps     00:09:42.615    86,886 bytes    487,069 bytes   00:09:45.818    
4               0:13:32.778     0:07:24.076     19,554 kbps     36,326 kbps     00:16:35.828    28,271 kbps     00:16:12.304    26,833 kbps     00:13:38.617    81,556 bytes    453,184 bytes   00:15:15.814    
5               0:20:56.855     0:14:08.714     20,346 kbps     40,939 kbps     00:27:00.385    33,720 kbps     00:22:30.716    33,115 kbps     00:22:26.445    84,858 bytes    477,224 bytes   00:23:31.643    
6               0:35:05.570     0:14:23.696     19,670 kbps     39,161 kbps     00:35:05.970    27,916 kbps     00:49:20.090    26,060 kbps     00:41:41.165    82,040 bytes    472,405 bytes   00:35:06.337    
7               0:49:29.266     0:08:33.179     21,418 kbps     44,343 kbps     00:49:30.300    36,940 kbps     00:54:37.641    33,615 kbps     00:54:37.173    89,332 bytes    509,174 bytes   00:49:30.367    
8               0:58:02.445     0:01:25.085     16,114 kbps     26,807 kbps     00:58:32.609    23,773 kbps     00:58:29.272    23,179 kbps     00:58:24.067    67,235 bytes    303,965 bytes   00:58:23.199    

STREAM DIAGNOSTICS:

File            PID             Type            Codec           Language                Seconds                 Bitrate                 Bytes           Packets         
----            ---             ----            -----           --------                --------------          --------------          -------------   -----           
00001.M2TS      4113 (0x1011)   0x1B            AVC                                     3567.464                20,551                  9,164,446,157   49,922,743      
00001.M2TS      4352 (0x1100)   0x81            AC3             eng (English)           3567.464                640                     285,404,160     1,672,290       
00001.M2TS      4353 (0x1101)   0x80            LPCM            eng (English)           3567.464                4,614                   2,057,754,188   11,416,112      
00001.M2TS      4354 (0x1102)   0x81            AC3             eng (English)           3567.464                192                     85,621,248      557,430         
00001.M2TS      4608 (0x1200)   0x90            PGS             eng (English)           3567.464                30                      13,301,002      76,969
<---- END FORUMS PASTE ---->

QUICK SUMMARY:

Disc Title: MASTERS_OF_HORROR
Disc Size: 49,705,164,706 bytes
Protection: AACS
BD-Java: No
Playlist: 00001.MPLS
Size: 12,242,896,896 bytes
Length: 0:59:27
Total Bitrate: 27.45 Mbps
Video: MPEG-4 AVC Video / 20551 kbps / 1080i / 29.970 fps / 16:9 / High Profile 4.1
Audio: English / LPCM Audio / 5.1 / 48 kHz / 4608 kbps / 16-bit
Audio: English / Dolby Digital Audio / 5.1 / 48 kHz / 640 kbps
Audio: English / Dolby Digital Audio / 2.0 / 48 kHz / 192 kbps
Subtitle: English / 29.827 kbps


"Homecoming"

<--- BEGIN FORUMS PASTE --->
Code:
                                                                                                                Total   Video                                             
Title                                                           Codec   Length  Movie Size      Disc Size       Bitrate Bitrate Main Audio Track                          Secondary Audio Track
-----                                                           ------  ------- --------------  --------------  ------- ------- ------------------                        ---------------------
00002.MPLS                                                      AVC     0:58:45 12,169,113,600  49,705,164,706  27.61   20.69   LPCM 5.1 4608Kbps (48kHz/16-bit)          DD AC3 5.1 640Kbps
Code:
DISC INFO:

Disc Title:     MASTERS_OF_HORROR
Disc Size:      49,705,164,706 bytes
Protection:     AACS
BD-Java:        No
BDInfo:         0.5.2

PLAYLIST REPORT:

Name:                   00002.MPLS
Size:                   12,169,113,600 bytes
Length:                 0:58:45 (h:m:s)
Total Bitrate:          27.61 Mbps
Description:            

VIDEO:

Codec                   Bitrate             Description     
-----                   -------             -----------     
MPEG-4 AVC Video        20691 kbps          1080i / 29.970 fps / 16:9 / High Profile 4.1

AUDIO:

Codec                           Language        Bitrate         Description     
-----                           --------        -------         -----------     
LPCM Audio                      English         4608 kbps       5.1 / 48 kHz / 4608 kbps / 16-bit
Dolby Digital Audio             English         640 kbps        5.1 / 48 kHz / 640 kbps
Dolby Digital Audio             English         192 kbps        2.0 / 48 kHz / 192 kbps

SUBTITLES:

Codec                           Language        Bitrate         Description     
-----                           --------        -------         -----------     
Presentation Graphics           English         41.994 kbps                     

FILES:

Name            Time In         Length          Size            Total Bitrate   
----            -------         ------          ----            -------------   
00002.M2TS      0:00:00.000     0:58:45.522     12,169,113,600  27,614          

CHAPTERS:

Number          Time In         Length          Avg Video Rate  Max 1-Sec Rate  Max 1-Sec Time  Max 5-Sec Rate  Max 5-Sec Time  Max 10Sec Rate  Max 10Sec Time  Avg Frame Size  Max Frame Size  Max Frame Time  
------          -------         ------          --------------  --------------  --------------  --------------  --------------  --------------  --------------  --------------  --------------  --------------  
1               0:00:00.000     0:01:15.208     31,584 kbps     42,734 kbps     00:00:33.666    35,268 kbps     00:00:29.662    33,651 kbps     00:00:24.591    131,674 bytes   471,153 bytes   00:00:34.300    
2               0:01:15.208     0:04:42.649     20,691 kbps     40,962 kbps     00:01:39.732    34,169 kbps     00:01:36.062    33,195 kbps     00:01:31.991    86,297 bytes    433,598 bytes   00:01:36.296    
3               0:05:57.857     0:13:58.671     20,393 kbps     33,372 kbps     00:17:39.792    28,938 kbps     00:17:08.494    25,978 kbps     00:10:02.568    85,055 bytes    400,289 bytes   00:19:56.528    
4               0:19:56.528     0:14:28.534     20,063 kbps     34,220 kbps     00:19:56.528    27,765 kbps     00:19:56.528    24,980 kbps     00:33:48.760    83,680 bytes    509,532 bytes   00:21:47.839    
5               0:34:25.063     0:09:18.391     20,829 kbps     44,862 kbps     00:37:11.729    34,539 kbps     00:37:11.729    31,753 kbps     00:38:55.966    86,874 bytes    467,979 bytes   00:37:11.829    
6               0:43:43.454     0:09:27.600     20,923 kbps     39,251 kbps     00:50:36.032    35,673 kbps     00:50:43.340    35,524 kbps     00:50:40.737    87,265 bytes    497,624 bytes   00:46:36.226    
7               0:53:11.054     0:04:10.216     19,465 kbps     38,516 kbps     00:56:59.482    33,608 kbps     00:56:56.212    28,999 kbps     00:56:51.207    81,186 bytes    353,627 bytes   00:55:17.747    
8               0:57:21.271     0:01:24.250     21,582 kbps     34,923 kbps     00:57:22.038    30,076 kbps     00:57:44.928    29,065 kbps     00:57:43.326    90,051 bytes    408,924 bytes   00:57:22.739    

STREAM DIAGNOSTICS:

File            PID             Type            Codec           Language                Seconds                 Bitrate                 Bytes           Packets         
----            ---             ----            -----           --------                --------------          --------------          -------------   -----           
00002.M2TS      4113 (0x1011)   0x1B            AVC                                     3525.455                20,692                  9,118,409,420   49,671,325      
00002.M2TS      4352 (0x1100)   0x81            AC3             eng (English)           3525.455                640                     282,042,880     1,652,595       
00002.M2TS      4353 (0x1101)   0x80            LPCM            eng (English)           3525.455                4,614                   2,033,522,820   11,281,680      
00002.M2TS      4354 (0x1102)   0x81            AC3             eng (English)           3525.455                192                     84,612,864      550,865         
00002.M2TS      4608 (0x1200)   0x90            PGS             eng (English)           3525.455                42                      18,506,510      106,184
<---- END FORUMS PASTE ---->

QUICK SUMMARY:

Disc Title: MASTERS_OF_HORROR
Disc Size: 49,705,164,706 bytes
Protection: AACS
BD-Java: No
Playlist: 00002.MPLS
Size: 12,169,113,600 bytes
Length: 0:58:45
Total Bitrate: 27.61 Mbps
Video: MPEG-4 AVC Video / 20691 kbps / 1080i / 29.970 fps / 16:9 / High Profile 4.1
Audio: English / LPCM Audio / 5.1 / 48 kHz / 4608 kbps / 16-bit
Audio: English / Dolby Digital Audio / 5.1 / 48 kHz / 640 kbps
Audio: English / Dolby Digital Audio / 2.0 / 48 kHz / 192 kbps
Subtitle: English / 41.994 kbps


"Chocolate"

<--- BEGIN FORUMS PASTE --->
Code:
                                                                                                                Total   Video                                             
Title                                                           Codec   Length  Movie Size      Disc Size       Bitrate Bitrate Main Audio Track                          Secondary Audio Track
-----                                                           ------  ------- --------------  --------------  ------- ------- ------------------                        ---------------------
00010.MPLS                                                      AVC     1:00:02 11,891,392,512  49,705,164,706  26.41   19.55   LPCM 5.1 4608Kbps (48kHz/16-bit)          DD AC3 5.1 640Kbps
Code:
DISC INFO:

Disc Title:     MASTERS_OF_HORROR
Disc Size:      49,705,164,706 bytes
Protection:     AACS
BD-Java:        No
BDInfo:         0.5.2

PLAYLIST REPORT:

Name:                   00010.MPLS
Size:                   11,891,392,512 bytes
Length:                 1:00:02 (h:m:s)
Total Bitrate:          26.41 Mbps
Description:            

VIDEO:

Codec                   Bitrate             Description     
-----                   -------             -----------     
MPEG-4 AVC Video        19555 kbps          1080i / 29.970 fps / 16:9 / High Profile 4.1

AUDIO:

Codec                           Language        Bitrate         Description     
-----                           --------        -------         -----------     
LPCM Audio                      English         4608 kbps       5.1 / 48 kHz / 4608 kbps / 16-bit
Dolby Digital Audio             English         640 kbps        5.1 / 48 kHz / 640 kbps
Dolby Digital Audio             English         192 kbps        2.0 / 48 kHz / 192 kbps

SUBTITLES:

Codec                           Language        Bitrate         Description     
-----                           --------        -------         -----------     
Presentation Graphics           English         22.044 kbps                     

FILES:

Name            Time In         Length          Size            Total Bitrate   
----            -------         ------          ----            -------------   
00010.M2TS      0:00:00.000     1:00:02.599     11,891,392,512  26,406          

CHAPTERS:

Number          Time In         Length          Avg Video Rate  Max 1-Sec Rate  Max 1-Sec Time  Max 5-Sec Rate  Max 5-Sec Time  Max 10Sec Rate  Max 10Sec Time  Avg Frame Size  Max Frame Size  Max Frame Time  
------          -------         ------          --------------  --------------  --------------  --------------  --------------  --------------  --------------  --------------  --------------  --------------  
1               0:00:00.000     0:01:18.078     30,155 kbps     42,500 kbps     00:00:33.633    35,053 kbps     00:00:29.662    33,642 kbps     00:00:24.591    125,716 bytes   448,924 bytes   00:01:12.272    
2               0:01:18.078     0:06:20.747     19,020 kbps     42,529 kbps     00:05:08.174    32,975 kbps     00:05:06.673    28,982 kbps     00:05:06.739    79,328 bytes    447,460 bytes   00:05:07.173    
3               0:07:38.825     0:09:26.399     20,551 kbps     45,206 kbps     00:09:22.728    34,364 kbps     00:07:49.502    32,755 kbps     00:07:44.931    85,715 bytes    485,585 bytes   00:13:29.175    
4               0:17:05.224     0:11:47.373     20,307 kbps     30,466 kbps     00:17:06.925    27,318 kbps     00:17:07.159    26,150 kbps     00:17:06.025    84,699 bytes    390,138 bytes   00:19:02.574    
5               0:28:52.597     0:08:55.535     19,404 kbps     41,294 kbps     00:31:47.772    33,653 kbps     00:31:53.611    31,721 kbps     00:31:52.610    80,930 bytes    419,726 bytes   00:32:02.120    
6               0:37:48.132     0:09:05.711     18,928 kbps     33,640 kbps     00:38:20.765    29,497 kbps     00:38:01.779    28,902 kbps     00:38:01.779    78,944 bytes    418,680 bytes   00:38:01.879    
7               0:46:53.844     0:11:42.668     17,870 kbps     32,487 kbps     00:57:55.205    24,353 kbps     00:46:56.880    22,216 kbps     00:46:53.844    74,534 bytes    446,716 bytes   00:57:55.271    
8               0:58:36.513     0:01:26.086     18,229 kbps     24,792 kbps     00:59:03.239    23,366 kbps     00:59:01.905    23,009 kbps     00:59:03.239    76,060 bytes    273,063 bytes   00:59:20.657    

STREAM DIAGNOSTICS:

File            PID             Type            Codec           Language                Seconds                 Bitrate                 Bytes           Packets         
----            ---             ----            -----           --------                --------------          --------------          -------------   -----           
00010.M2TS      4113 (0x1011)   0x1B            AVC                                     3602.532                19,555                  8,805,972,837   47,976,037      
00010.M2TS      4352 (0x1100)   0x81            AC3             eng (English)           3602.532                640                     288,209,920     1,688,730       
00010.M2TS      4353 (0x1101)   0x80            LPCM            eng (English)           3602.532                4,614                   2,077,979,680   11,528,320      
00010.M2TS      4354 (0x1102)   0x81            AC3             eng (English)           3602.532                192                     86,462,976      562,910         
00010.M2TS      4608 (0x1200)   0x90            PGS             eng (English)           3602.532                22                      9,927,016       57,609
<---- END FORUMS PASTE ---->

QUICK SUMMARY:

Disc Title: MASTERS_OF_HORROR
Disc Size: 49,705,164,706 bytes
Protection: AACS
BD-Java: No
Playlist: 00010.MPLS
Size: 11,891,392,512 bytes
Length: 1:00:02
Total Bitrate: 26.41 Mbps
Video: MPEG-4 AVC Video / 19555 kbps / 1080i / 29.970 fps / 16:9 / High Profile 4.1
Audio: English / LPCM Audio / 5.1 / 48 kHz / 4608 kbps / 16-bit
Audio: English / Dolby Digital Audio / 5.1 / 48 kHz / 640 kbps
Audio: English / Dolby Digital Audio / 2.0 / 48 kHz / 192 kbps
Subtitle: English / 22.044 kbps

Last edited by equivalent; 06-12-2009 at 06:29 PM.
  Reply With Quote
Old 06-10-2009, 09:32 PM   #10
Coqui2k Coqui2k is offline
Expert Member
 
Coqui2k's Avatar
 
Apr 2009
Camp Crystal Lake
602
6
1
123
Default

Confused
  Reply With Quote
Old 01-03-2007, 09:09 PM   #11
Deciazulado Deciazulado is offline
Site Manager
 
Deciazulado's Avatar
 
Aug 2006
USiberia
6
619
3662
2889
Default

I'd think if they had 8Mb/s DTS it wouda classified as SACD/DVD-A super audio and been proclaimed into the 4 winds....

Hey I'm busy making a post. is this gonna be a Beerfest?
  Reply With Quote
Old 01-03-2007, 09:50 PM   #12
phloyd phloyd is offline
Blu-ray Guru
 
phloyd's Avatar
 
Dec 2003
California
5
Default

The DTheater tapes had 1.5 Mbps DTS when included and 576 kbps Dolby Digital. They also featured 23 Mbps MPEG2 video, though it was 21.5 on the DTS releases. Very few were encoded progressively, most were encoded interlaced.

Last edited by phloyd; 01-03-2007 at 10:22 PM. Reason: yeah, what he said :)
  Reply With Quote
Old 01-03-2007, 10:06 PM   #13
josh1233 josh1233 is offline
Member
 
Dec 2006
Default

Is the max audio level on all of these formats the same as a CD? Such as "all high bits" being 30 and zero bits being 0. Just wondering for amp clipping and level control.

I have my amps set to a 3:1 clipping ratio for max output. To do this you take the voltage just before clipping and multipy by 3, since this is about the threshold that a human ear can hear clipping. So if the max output before clipping is 7 volts@1k, then the gain/volume control can be set to as high as 21v@1k before you can hear the amp clip.

Just curious. I never get the volume up that high as it would be too loud to comfortably listen the the audio.

Last edited by josh1233; 01-03-2007 at 10:12 PM.
  Reply With Quote
Old 01-04-2007, 09:48 AM   #14
Helicon Helicon is offline
Active Member
 
Helicon's Avatar
 
Jan 2007
Denmark
Default

Thanks for the help everyone..

benes: In the bitrate list DTS-HD has a bitrate of 3039, actually I thougt it was 6000 on Blu Ray??



http://www.dts.com/dts-hd/dts-on-bluray-and-hddvd.php
  Reply With Quote
Old 01-05-2007, 01:00 PM   #15
AlexBC AlexBC is online now
Active Member
 
Dec 2006
Default

Benes,

just to make sure. By what's indicated on the readings, Paramount's BDs features:
DTS tracks at 1536kbps 48khz/24bit
DD tracks at 640kbps 48khz/16bit

Are the DTS tracks a nice improvement over the DD ones? I haven't got any Paramount titles yet, but if that's indeed the case I might start getting some. Since SQ is even more important to me than PQ, for now I'm only getting titles with real master quality 48/24 tracks.

BTW, any chance 'Courage Under Fire', 'Glory Road' and 'The Wild' will make into the list?
Thanks again for this great effort, this is a fantastic thread.
  Reply With Quote
Old 01-06-2007, 04:26 PM   #16
AlexBC AlexBC is online now
Active Member
 
Dec 2006
Default

Quote:
I had this discussion on another AVS thread. I believe all AC3 tracks are 16-bit. And I am going by what my receiver reports on these DTS tracks. For all of the DTS tracks on BD it says 48/24. I thought that maybe my receiver just says that for every track so I checked a bunch of my DVDs and I found some that said 24, 20, and even 16. So I assume the 24 indication for the BD tracks is accurate.
Very nice. Have you done some a/b comparison to check if you could hear any difference on the Paramount titles?

Black Rain may very well be my first Parmount purchase. I've never seen Courage and Glory Road before, so I guess I'll rent the SD first instead of going with a blind buy.

Last edited by AlexBC; 01-06-2007 at 04:28 PM.
  Reply With Quote
Old 01-31-2007, 11:08 PM   #17
PeterTHX PeterTHX is offline
Blu-ray Count
 
PeterTHX's Avatar
 
Sep 2006
561
12
Default

Quote:
Originally Posted by benes View Post
I believe all AC3 tracks are 16-bit.
AC-3 can be mastered in either 16/20/24 bits.

Does your receiver list bit resolution for DD the same way it does DTS?
  Reply With Quote
Old 03-05-2007, 06:13 PM   #18
Deciazulado Deciazulado is offline
Site Manager
 
Deciazulado's Avatar
 
Aug 2006
USiberia
6
619
3662
2889
Default

Space Cowboys is MPEG-2. I'd say about 20Mb/s for action scenes?
  Reply With Quote
Old 03-06-2007, 12:16 AM   #19
PeterTHX PeterTHX is offline
Blu-ray Count
 
PeterTHX's Avatar
 
Sep 2006
561
12
Default

Quote:
Originally Posted by Deciazulado View Post
Space Cowboys is MPEG-2. I'd say about 20Mb/s for action scenes?
Holy Crap!
I never bothered to look at the PS3 display for this title (and of course the Samsung doesn't tell you at all).
I'd assumed since it came out after Warner's switchover that they'd simply translated their HD DVD version like the rest.
  Reply With Quote
Old 04-25-2007, 12:23 PM   #20
RBFilms RBFilms is offline
Blu-ray Insider
 
RBFilms's Avatar
 
Jan 2007
Default Bit Rate for CHRONOS on BD

Bit Rates for CHRONOS

New version has NO issues with PS3 Players.

---------------------------------

VIDEO

65mm Film (IMAX) Transfer

25.5 Average
32.5 Maximum

1920 x 1080P @ 24fps

---------------------------------

AUDIO

6.4 Average
8.2 Maximum

96/24 Soundtrack

---------------------------------

Richard Casey
R&B Films, Ltd.
  Reply With Quote
Reply
Go Back   Blu-ray Forum > Movies > Blu-ray Movies - North America

Similar Threads
thread Forum Thread Starter Replies Last Post
Do Bitrates matter? Blu-ray Movies - North America nathan28 19 01-20-2009 03:40 PM
Question about bitrates and PQ Blu-ray Technology and Future Technology mthopper 11 01-12-2009 08:53 PM
Will WB re-release current Blu movies at higher bitrates? Blu-ray Technology and Future Technology UTVOL06 20 01-10-2008 09:28 PM
definitive proof that hd dvd bitrates are crippling blu-ray Blu-ray Movies - North America jorg 3 12-02-2007 01:40 AM
BitRates Blu-ray Movies - North America Robert Plant 0 07-19-2007 06:05 PM


Thread Tools
Display Modes

Posting Rules
You may not post new threads
You may not post replies
You may not post attachments
You may not edit your posts

BB code is On
Smilies are On
[IMG] code is On
HTML code is Off

Forum Jump


All times are GMT. The time now is 03:25 PM.